Loading...
Error

Скачать Охота на индюшек / Turkey Shoot (Брайан Тренчард-Смит) [1982, ужасы, фантастика, триллер, драма, DVDRip] [DVO] торрент без регистрации

 
Статистика раздачи
Размер:  763 MB   |    Скачан:  4 раза
Сидов:  1  [  0 KB/s  ]  
 
Автор Сообщение

Marsianka

[] 

Информация о фильме
Название: Охота на индюшек
Оригинальное название: Turkey Shoot
Год выхода: 1982
Жанр: ужасы, фантастика, триллер, драма
Режиссер: Брайан Тренчард-Смит
В ролях: Стив Рейлсбэк, Оливия Хасси, Майкл Крэйг, Кармен Дункан, Ноэль Феррье

О фильме:
В вымышленной стране с военной диктатурой всех неблагонадежных и просто сочувствующих перевоспитывают в особых лагерях, превращая в послушных рабов. «Посадочных» мест уже не хватает, но эту проблему начальники-садисты одного из ИТУ решают очень просто. Для высокопоставленных гостей, приезжающих отдохнуть, устраивают так называемую охоту на индюшек, мишенями в ней служат заключенные. Смертоносная игра, в которой охотники могли использовать все виды холодного и огнестрельного оружия, была для них безопасной, пока на роли «индюшек» не назначили красотку Крис и мужественного Пола Андерса…



Страна: Австралия
Студия: FGH, Filmco Limited, Hemdale Films
Продолжительность: 01:29:31
Перевод: Профессиональный (двухголосый, закадровый)

Файл
Кодек: XviD
Качество: DVDRip
Видео: 688x288 (2.39:1), 25 fps, XviD build 73 ~1054 kbps avg, 0.21 bit/pixel
Звук: 48 kHz, MPEG Layer 3, 2 ch, ~128.00 kbps avg
Субтитры: Отсутствуют

Семпл
General
Complete name : D:Изготовление рипаTurkey Shoot_DVDRip.by shkiper.avi
Format : AVI
Format/Info : Audio Video Interleave
File size : 763 MiB
Duration : 1 h 29 min
Overall bit rate : 1 192 kb/s
Writing application : VirtualDubMod 1.5.10.3 | www.virtualdub-fr.org || (build 2550/release)
Writing library : VirtualDubMod build 2550/release

Video
ID : 0
Format : MPEG-4 Visual
Format profile : Advanced Simple@L5
Format settings, BVOP : 1
Format settings, QPel : No
Format settings, GMC : No warppoints
Format settings, Matrix : Custom
Codec ID : XVID
Codec ID/Hint : XviD
Duration : 1 h 29 min
Bit rate : 1 054 kb/s
Width : 688 pixels
Height : 288 pixels
Display aspect ratio : 2.40:1
Frame rate : 25.000 FPS
Color space : YUV
Chroma subsampling : 4:2:0
Bit depth : 8 bits
Scan type : Progressive
Compression mode : Lossy
Bits/(Pixel*Frame) : 0.213
Stream size : 675 MiB (88%)
Writing library : XviD 73

Audio
ID : 1
Format : MPEG Audio
Format version : Version 1
Format profile : Layer 3
Codec ID : 55
Codec ID/Hint : MP3
Duration : 1 h 29 min
Bit rate mode : Constant
Bit rate : 128 kb/s
Channel(s) : 2 channels
Sampling rate : 48.0 kHz
Compression mode : Lossy
Stream size : 82.0 MiB (11%)
Alignment : Aligned on interleaves
Interleave, duration : 40 ms (1.00 video frame)
Interleave, preload duration : 504 ms
Writing library : LAME3.99r
Encoding settings : -m s -V 4 -q 2 -lowpass 17 -b 128
Релиз от:



Скачать Охота.на.индюшек.Turkey.Shoot.(Брайан.Тренчард-Смит).[1982.ужасы.фантастика.триллер.драма.DVDRip].[DVO].torrent без регистрации
Золото ЗОЛОТАЯ РАЗДАЧА! СКАЧАННОЕ НЕ ЗАСЧИТЫВАЕТСЯ! Золото
Дата: Зарегистрирован   [ Тип: внутренний ] Как тут cкачать?
MAGNET ссылка
MAGNET ссылка


Скачать .torrent

16 KB

Статус: проверено DHT
Скачан: торрент - 4 раз, раздача полностью - 1 раз
Размер: 763 MB
Оценка:  - (Голосов: 0)
Поблагодарили: 1
Поделиться ссылкой на эту раздачу с друзьями:
В контактеFacebookОдноклассникиTwitterLivejournalМой МирLiveinternet
 

 
Показать сообщения:    


Вы не можете начинать темы
Вы не можете отвечать на сообщения
Вы не можете редактировать свои сообщения
Вы не можете удалять свои сообщения
Вы не можете голосовать в опросах
Вы не можете прикреплять файлы к сообщениям
Вы можете скачивать файлы