Loading...
Error

Скачать Я и моя сестра / Io e mia sorella (Карло Вердоне) [1987, комедия, DVDRip-AVC] [VO]+[Sub]x2 торрент без регистрации

 
Статистика раздачи
Размер:  3,07 GB   |    Скачан:  1 раз
Сидов:  1  [  0 KB/s  ]  
 
Автор Сообщение

Marsianka

[] 

Название: Я и моя сестра
Оригинальное название: Io e mia sorella
Год выхода: 1987

Страна: Италия
Студия: C.G. Silver Film, Rai 1 See
Продолжительность: 01:45:00
Жанр: комедия

Режиссер: Карло Вердоне
В ролях: Карло Вердоне /Carlo Verdone/, Орнелла Мути /Ornella Muti/, Елена София Риччи /Elena Sofia Ricci/, Марианджела Джордано /Mariangela Giordano/, Галеаццо Бенти /Galeazzo Benti/, Томас Арана /Tomas Arana/, Маурицио Фардо /Maurizio Fardo/, Вероника Лазар /Veronica Lazar/, Массимо Ванни /Massimo Vanni/, Том Феллеги /Tom Felleghy/, ...

Перевод:
- Любительский (одноголосый, закадровый) Pucs по переводу Станислава Румянцева
- Субтитры

О фильме: Карло — музыкант, исполняющий классическую музыку в оркестре. Он женат на капризной виолончелистке Сирене. Сестра Карло, Сильвия, убежденная бездельница, которая нигде не работает длительное время. Когда умирает мать Карло, Сильвия приезжает к нему и полностью нарушает обыденную размеренную жизнь семьи Карло. Сильвия ввязывается в авантюру и следом за собой втягивает в нее своего брата, который не знает, что у Сильвии начался роман с одним из лучших адвокатов Милана, которому далеко за шестьдесят. Престарелый любовник готов бросить свою семью ради Сильвии, тогда как последняя, напротив, его любви не желает…



Кодек: x264
Качество: DVDRip-AVC
Видео: 976x572, 3800 kbps, 25 fps
Аудио #1: AC-3, 2 ch, 192 kbps (Rus) - VO Pucs
Аудио #2: AC-3, 2 ch, 192 kbps (Ita)
Субтитры: Русские, Итальянские

x264 [info]: frame I:1091 Avg QP:15.87 size: 79054
x264 [info]: frame P:29004 Avg QP:18.23 size: 37067
x264 [info]: frame B:127406 Avg QP:20.79 size: 14364
x264 [info]: consecutive B-frames: 0.9% 0.4% 3.2% 10.6% 12.7% 64.2% 4.7% 1.5% 1.0% 0.2% 0.2% 0.3% 0.1%

Общее
Уникальный идентификатор : 208071532022946379749888350536521390675 (0x9C891E91A333B3339C8B10986DD69A53)
Полное имя : Я и моя сестра (Io e mia sorella) 1987 DVDRip.mkv
Формат : Matroska
Версия формата : Version 2
Размер файла : 3,07 Гбайт
Продолжительность : 1 ч. 45 м.
Общий поток : 4185 Кбит/сек
Дата кодирования : UTC 2016-11-12 17:07:40
Программа кодирования : mkvmerge v4.0.0 ('The Stars were mine') сборка от Jun 6 2010 16:18:42
Библиотека кодирования : libebml v1.0.0 + libmatroska v1.0.0

Видео
Идентификатор : 1
Формат : AVC
Формат/Информация : Advanced Video Codec
Профиль формата : High@L4.1
Параметр CABAC формата : Да
Параметр ReFrames формата : 12 кадров
Идентификатор кодека : V_MPEG4/ISO/AVC
Продолжительность : 1 ч. 45 м.
Битрейт : 3800 Кбит/сек
Ширина : 976 пикселей
Высота : 572 пикселя
Соотношение сторон : 1,706
Режим частоты кадров : Постоянный
Частота кадров : 25,000 кадров/сек
Цветовое пространство : YUV
Субдискретизация насыщенности : 4:2:0
Битовая глубина : 8 бит
Тип развёртки : Прогрессивная
Бит/(Пиксели*Кадры) : 0.272
Размер потока : 2,73 Гбайт (89%)
Библиотека кодирования : x264 core 146 r2538 121396c
Настройки программы : cabac=1 / ref=12 / deblock=1:-3:-3 / analyse=0x3:0x133 / me=umh / subme=11 / psy=1 / psy_rd=1.00:0.00 / mixed_ref=1 / me_range=32 / chroma_me=1 / trellis=2 / 8x8dct=1 / cqm=0 / deadzone=21,11 / fast_pskip=0 / chroma_qp_offset=-2 / threads=12 / lookahead_threads=2 / sliced_threads=0 / nr=0 / decimate=0 / interlaced=0 / bluray_compat=0 / constrained_intra=0 / bframes=12 / b_pyramid=2 / b_adapt=2 / b_bias=0 / direct=3 / weightb=1 / open_gop=0 / weightp=2 / keyint=250 / keyint_min=25 / scenecut=40 / intra_refresh=0 / rc=2pass / mbtree=0 / bitrate=3800 / ratetol=1.0 / qcomp=0.60 / qpmin=0 / qpmax=69 / qpstep=4 / cplxblur=20.0 / qblur=0.5 / ip_ratio=1.40 / pb_ratio=1.30 / aq=1:0.80
Язык : Italian
Default : Нет
Forced : Нет

Аудио #1
Идентификатор : 2
Формат : AC-3
Формат/Информация : Audio Coding 3
Расширение режима : CM (complete main)
Параметр Endianness формата : Big
Идентификатор кодека : A_AC3
Продолжительность : 1 ч. 45 м.
Вид битрейта : Постоянный
Битрейт : 192 Кбит/сек
Каналы : 2 канала
Расположение каналов : Front: L R
Частота : 48,0 КГц
Частота кадров : 31,250 кадров/сек (1536 spf)
Метод сжатия : С потерями
Размер потока : 144 Мбайт (5%)
Заголовок : VO Pucs
Язык : Russian
Default : Нет
Forced : Нет

Аудио #2
Идентификатор : 3
Формат : AC-3
Формат/Информация : Audio Coding 3
Расширение режима : CM (complete main)
Параметр Endianness формата : Big
Идентификатор кодека : A_AC3
Продолжительность : 1 ч. 45 м.
Вид битрейта : Постоянный
Битрейт : 192 Кбит/сек
Каналы : 2 канала
Расположение каналов : Front: L R
Частота : 48,0 КГц
Частота кадров : 31,250 кадров/сек (1536 spf)
Метод сжатия : С потерями
Размер потока : 144 Мбайт (5%)
Язык : Italian
Default : Нет
Forced : Нет

Текст #1
Идентификатор : 4
Формат : UTF-8
Идентификатор кодека : S_TEXT/UTF8
Идентификатор кодека/Информация : UTF-8 Plain Text
Язык : Russian
Default : Нет
Forced : Нет

Текст #2
Идентификатор : 5
Формат : UTF-8
Идентификатор кодека : S_TEXT/UTF8
Идентификатор кодека/Информация : UTF-8 Plain Text
Язык : Italian
Default : Нет
Forced : Нет



Скачать Я.и.моя.сестра.Io.e.mia.sorella.(Карло.Вердоне).[1987.комедия.DVDRip-AVC].[VO]+[Sub]x2.torrent без регистрации
Золото ЗОЛОТАЯ РАЗДАЧА! СКАЧАННОЕ НЕ ЗАСЧИТЫВАЕТСЯ! Золото
Дата: Зарегистрирован   [ Тип: внутренний ] Как тут cкачать?
MAGNET ссылка
MAGNET ссылка


Скачать .torrent

16 KB

Статус: проверено DHT
Скачан: торрент - 1 раз, раздача полностью - 0 раз
Размер: 3,07 GB
Оценка:  - (Голосов: 0)
Поблагодарили: 1
Поделиться ссылкой на эту раздачу с друзьями:
В контактеFacebookОдноклассникиTwitterLivejournalМой МирLiveinternet
 

 
Показать сообщения:    


Вы не можете начинать темы
Вы не можете отвечать на сообщения
Вы не можете редактировать свои сообщения
Вы не можете удалять свои сообщения
Вы не можете голосовать в опросах
Вы не можете прикреплять файлы к сообщениям
Вы можете скачивать файлы