Loading...
Error

Скачать Восток есть восток / East Is East (Дэмиен О’Доннелл) [1999, драма, комедия, BDRip-AVC] [MVO (Лицензия)]+[Sub]x2 торрент без регистрации

 
Статистика раздачи
Размер:  2,18 GB   |    Скачан:  3 раза
Сидов:  1  [  0 KB/s  ]  
 
Автор Сообщение

Marsianka

[] 

Название: Восток есть восток
Оригинальное название: East Is East
Год выхода: 1999
Жанр: драма, комедия
Режиссер: Дэмиен О’Доннелл
В ролях: Ом Пури, Линда Бэссет, Джордан Раутледж, Арчи Панджаби, Эмил Марва, Крис Биссон, Джими Мистри, Раджи Джеймс, Иэн Эспиналл, Лесли Никол

О фильме:
Северная Англия, 1971 год. В дискотеках крутят «Дип Перпл» и курят «травку». В моде — брюки клеш, длинные волосы и глобальная сексуальная революция. Раскованные семидесятые распахнули двери потрясающих возможностей для всех желающих, кроме несчастных героев этой картины — семерых детей не очень умного, но очень гордого эмигранта из далекой восточной страны. Ребятам серьезно не повезло с папашей! Мало того, что он — домашний тиран, так ведь еще и груб не в меру, а если что не так, то сразу в глаз может дать, без предупреждения. Хочет он, видите ли, чтобы дети его росли темными, забитыми и послушными «скромниками» в доброй Англии, где забыли о предрассудках, и гуляет ветер свободы.





Страна: Великобритания
Студия: Assassin Films, BBC Television Centre, FilmFour
Продолжительность: 01:36:51
Перевод: Профессиональный многоголосый (Лицензия)
Субтитры: Русские, английские

Кодек: H.264
Формат: MKV
Качество: BDRip-AVC (Blu-Ray Remux (1080р))
Видео: MPEG-4 AVC, 2384 Кбит/с, 1024х576
Звук: Русский (АС3, 6 ch, 384 Кбит/с), английский (АС3, 6 ch, 448 Кбит/с)

Сохранены чаптеры как на Blu-Ray
Общее
Уникальный идентификатор : 194741106831437605884045731969934217557 (0x9281C5DD19C329439B72B262913ED155)
Полное имя : Vostok.est.vostok.1999.x264.BDRip.(AVC).mkv
Формат : Matroska
Версия формата : Version 1
Размер файла : 2,18 Гбайт
Продолжительность : 1 ч. 36 м.
Общий поток : 3217 Кбит/сек
Дата кодирования : UTC 2014-10-09 17:12:37
Программа кодирования : mkvmerge v2.1.0 ('Another Place To Fall') built on Aug 19 2007 13:40:07
Библиотека кодирования : libebml v0.7.7 + libmatroska v0.8.1

Видео
Идентификатор : 1
Формат : AVC
Формат/Информация : Advanced Video Codec
Профиль формата : High@L4.1
Параметр CABAC формата : Да
Параметр ReFrames формата : 8 кадров
Идентификатор кодека : V_MPEG4/ISO/AVC
Продолжительность : 1 ч. 36 м.
Битрейт : 2384 Кбит/сек
Ширина : 1024 пикселя
Высота : 576 пикселей
Соотношение сторон : 16:9
Режим частоты кадров : Постоянный
Частота кадров : 23,976 кадра/сек
Цветовое пространство : YUV
Субдискретизация насыщенности : 4:2:0
Битовая глубина : 8 бит
Тип развёртки : Прогрессивная
Бит/(Пиксели*Кадры) : 0.169
Размер потока : 1,57 Гбайт (72%)
Библиотека кодирования : x264 core 125 r2200 999b753
Настройки программы : cabac=1 / ref=8 / deblock=1:-3:-3 / analyse=0x3:0x113 / me=umh / subme=9 / psy=1 / psy_rd=1.00:0.00 / mixed_ref=1 / me_range=32 / chroma_me=1 / trellis=2 / 8x8dct=1 / cqm=0 / deadzone=21,11 / fast_pskip=0 / chroma_qp_offset=-2 / threads=6 / lookahead_threads=1 / sliced_threads=0 / nr=0 / decimate=0 / interlaced=0 / bluray_compat=0 / constrained_intra=0 / bframes=8 / b_pyramid=2 / b_adapt=2 / b_bias=0 / direct=3 / weightb=1 / open_gop=0 / weightp=2 / keyint=240 / keyint_min=23 / scenecut=40 / intra_refresh=0 / rc=2pass / mbtree=0 / bitrate=2384 / ratetol=1.0 / qcomp=0.60 / qpmin=0 / qpmax=69 / qpstep=4 / cplxblur=20.0 / qblur=0.5 / ip_ratio=1.40 / pb_ratio=1.30 / aq=1:1.10
Язык : English
Default : Да
Forced : Нет

Аудио #1
Идентификатор : 2
Формат : AC-3
Формат/Информация : Audio Coding 3
Расширение режима : CM (complete main)
Параметр Endianness формата : Big
Идентификатор кодека : A_AC3
Продолжительность : 1 ч. 36 м.
Вид битрейта : Постоянный
Битрейт : 384 Кбит/сек
Каналы : 6 каналов
Расположение каналов : Front: L C R, Side: L R, LFE
Частота : 48,0 КГц
Битовая глубина : 16 бит
Метод сжатия : С потерями
Размер потока : 266 Мбайт (12%)
Заголовок : Профессиональный многоголосый (Лицензия)
Язык : Russian
Default : Да
Forced : Нет

Аудио #2
Идентификатор : 3
Формат : AC-3
Формат/Информация : Audio Coding 3
Расширение режима : CM (complete main)
Параметр Endianness формата : Big
Идентификатор кодека : A_AC3
Продолжительность : 1 ч. 36 м.
Вид битрейта : Постоянный
Битрейт : 448 Кбит/сек
Каналы : 6 каналов
Расположение каналов : Front: L C R, Side: L R, LFE
Частота : 48,0 КГц
Битовая глубина : 16 бит
Метод сжатия : С потерями
Размер потока : 310 Мбайт (14%)
Заголовок : Оригинал
Язык : English
Default : Нет
Forced : Нет

Текст #1
Идентификатор : 4
Формат : UTF-8
Идентификатор кодека : S_TEXT/UTF8
Идентификатор кодека/Информация : UTF-8 Plain Text
Заголовок : Русские
Язык : Russian
Default : Да
Forced : Нет

Текст #2
Идентификатор : 5
Формат : UTF-8
Идентификатор кодека : S_TEXT/UTF8
Идентификатор кодека/Информация : UTF-8 Plain Text
Заголовок : Английские
Язык : English
Default : Нет
Forced : Нет

Меню
00:00:00.000 : en:Chapter 01
00:03:50.664 : en:Chapter 02
00:10:30.396 : en:Chapter 03
00:16:30.189 : en:Chapter 04
00:24:45.918 : en:Chapter 05
00:28:58.303 : en:Chapter 06
00:37:41.893 : en:Chapter 07
00:44:26.998 : en:Chapter 08
00:47:40.157 : en:Chapter 09
00:54:33.203 : en:Chapter 10
01:03:11.354 : en:Chapter 11
01:08:59.902 : en:Chapter 12
01:12:27.843 : en:Chapter 13
01:17:23.606 : en:Chapter 14
01:24:33.602 : en:Chapter 15
01:28:02.377 : en:Chapter 16



Скачать Восток.есть.восток.East.Is.East.(Дэмиен.О’Доннелл).[1999.драма.комедия.BDRip-AVC].[MVO.(Лицензия)]+[Sub]x2.torrent без регистрации
Золото ЗОЛОТАЯ РАЗДАЧА! СКАЧАННОЕ НЕ ЗАСЧИТЫВАЕТСЯ! Золото
Дата: Зарегистрирован   [ Тип: внутренний ] Как тут cкачать?
MAGNET ссылка
MAGNET ссылка


Скачать .torrent

12 KB

Статус: проверено DHT
Скачан: торрент - 3 раз, раздача полностью - 6 раз
Размер: 2,18 GB
Оценка:  - (Голосов: 0)
Поблагодарили: 1
Поделиться ссылкой на эту раздачу с друзьями:
В контактеFacebookОдноклассникиTwitterLivejournalМой МирLiveinternet
 

 
Показать сообщения:    


Вы не можете начинать темы
Вы не можете отвечать на сообщения
Вы не можете редактировать свои сообщения
Вы не можете удалять свои сообщения
Вы не можете голосовать в опросах
Вы не можете прикреплять файлы к сообщениям
Вы можете скачивать файлы