Loading...
Error

Скачать Давай еще, Тэд / Better Off Ted (сезоны 01-02) (Майкл Фреско и др.) [2009-2010, комедия, WEB-DLRip] [MVO (ТНТ)] торрент без регистрации

 
Статистика раздачи
Размер:  6,7 GB   |    Скачан:  3 раза
Сидов:  1  [  0 KB/s  ]  
 
Автор Сообщение

МихаНЕзатор

[] 

Давай ещё, Тэд / Better Off Ted


Страна: США
Производство: 20th Century Fox Television, Garfield Grove Productions
Год выпуска: 2009-2010
Сезоны: 1-2
Жанр: комедия
Режиссеры: Майкл Фреско, Марк Баклэнд, Ли Шаллат Чемел
Авторы сценария: Виктор Фреско, Ингрид Эскахеда, Майкл Тевербо

В ролях: Джей Хэррингтон, Порша де Росси, Андреа Андерс, Джонатан Славин, Малкольм Баррет, Изабелла Акрес, Джонна Кае Волц, Терри Роудс

Описание: Для команды «Veridian Technologies» нет недостижимых успехов. Нужна индюшка-самоубийца..? Пожалуйста! Нужен сплав, твёрдый, как сталь, но в то же время упругий и съедобный..? Получите! Глава отдела исследований и развития Тэд Крисп обожает свою работу. Ему всё в ней нравится. Нравится его супер-босс, Вероника. Нравятся его коллеги, Лем, Фил и Линда. Особенно Линда. Но больше всего ему нравится то, чем они занимаются. Стирая границы между фантазиями и реальностью, команда исследователей постоянно превращает до смешного невозможное в шикарно возможное…

Дата премьеры (мир): 18 марта 2009
Дата премьеры (РФ): 18 сентября 2012



Продолжительность: 26х ~00:22:00
Перевод: Профессиональный (многоголосый, закадровый) | ТНТ
Субтитры: нет

Качество: WEB-DLRip
Формат: AVI
Видео кодек: XviD
Аудио кодек: АС3
Видео: 720x400 (16:9), 25.000 fps, XviD build 65 ~1 600 kbps avg
Аудио: 48.0 kHz, AC3 Dolby Digital, 2/0 (L,R) ch, ~192 kbps

АНОНСЫ ПОПУЛЯРНЫХ РАЗДАЧ
General
Полное имя : Davay.ewe.Ted.s01e01.2009.WEB-DLRip.avi
Формат : AVI
Формат/Информация : Audio Video Interleave
Размер файла : 261 Мбайт
Продолжительность : 20 м.
Общий поток : 1742 Кбит/сек
Программа кодирования : VirtualDubMod 1.5.10.3 | (build 2550/release)
Библиотека кодирования : VirtualDubMod build 2550/release

Видео
Идентификатор : 0
Формат : MPEG-4 Visual
Профиль формата : Advanced Simple@L5
Параметр BVOP формата : 2
Параметр QPel формата : Нет
Параметр GMC формата : Без точки перехода
Параметр матрицы формата : Default (H.263)
Идентификатор кодека : XVID
Идентификатор кодека/Подсказка : XviD
Продолжительность : 20 м.
Битрейт : 1540 Кбит/сек
Ширина : 720 пикселей
Высота : 400 пикселей
Соотношение сторон : 16:9
Частота кадров : 25,000 кадров/сек
Цветовое пространство : YUV
Субдискретизация насыщенности : 4:2:0
Битовая глубина : 8 бит
Тип развёртки : Прогрессивная
Метод сжатия : С потерями
Бит/(Пиксели*Кадры) : 0.214
Размер потока : 231 Мбайт (88%)
Библиотека кодирования : XviD 65

Аудио
Идентификатор : 1
Формат : AC-3
Формат/Информация : Audio Coding 3
Расширение режима : CM (complete main)
Параметр Endianness формата : Big
Идентификатор кодека : 2000
Продолжительность : 20 м.
Вид битрейта : Постоянный
Битрейт : 192 Кбит/сек
Каналы : 2 канала
Расположение каналов : Front: L R
Частота : 48,0 КГц
Битовая глубина : 16 бит
Метод сжатия : С потерями
Размер потока : 28,8 Мбайт (11%)
Выравнивание : Разделение по промежуткам
Продолжительность промежутка : 40 мс. (1,00 видеокадр)
Время предзагрузки промежутка : 500 мс.



Скачать Давай.еще.Тэд.Better.Off.Ted.(сезоны.01-02).(Майкл.Фреско.и.др.).[2009-2010.комедия.WEB-DLRip].[MVO.(ТНТ)].torrent без регистрации
Золото ЗОЛОТАЯ РАЗДАЧА! СКАЧАННОЕ НЕ ЗАСЧИТЫВАЕТСЯ! Золото
Дата: Зарегистрирован   [ Тип: внутренний ] Как тут cкачать?
MAGNET ссылка
MAGNET ссылка


Скачать .torrent

20 KB

Статус: проверено DHT
Скачан: торрент - 3 раз, раздача полностью - 1 раз
Размер: 6,7 GB
Оценка:  - (Голосов: 0)
Поблагодарили: 0
Поделиться ссылкой на эту раздачу с друзьями:
В контактеFacebookОдноклассникиTwitterLivejournalМой МирLiveinternet
 

 
Показать сообщения:    


Вы не можете начинать темы
Вы не можете отвечать на сообщения
Вы не можете редактировать свои сообщения
Вы не можете удалять свои сообщения
Вы не можете голосовать в опросах
Вы не можете прикреплять файлы к сообщениям
Вы можете скачивать файлы