Loading...
Error

Скачать Внутреннее пространство / Innerspace (Джо Данте) [1987, фантастика, фэнтези, боевик, триллер, комедия, приключения, HDRip-AVC] [Dub]+[MVO]+[Sub]x2 торрент без регистрации

 
Статистика раздачи
Размер:  2,17 GB   |    Скачан:  8 раз
Сидов:  1  [  0 KB/s  ]  
 
Автор Сообщение

Marsianka

[] 

Информация о фильме
Название: Внутреннее пространство
Оригинальное название: Innerspace
Год выхода: 1987
Жанр: фантастика, фэнтези, боевик, триллер, комедия, приключения
Режиссер: Джо Данте
В ролях: Деннис Куэйд, Мартин Шорт, Мег Райан, Кевин МакКарти, Фиона Льюис, Вернон Уэллс, Роберт Пикардо, Уэнди Шаал, Гарольд Сильвестр, Уильям Шэллерт

О фильме:
Американский пилот лейтенант Так Пендлтон принимает участие в эксперименте, в процессе которого он должен быть очень сильно уменьшен в размерах и в летательном аппарате, похожем на подлодку обследовать внутреннее пространство кролика. Но технотеррористы рушат все планы и похищают шприц, в котором находился миниатюризированый Так.

По ошибке содержимое шприца попадает в ипохондрика Джека Паттера. Теперь террористы начинают охотиться за ничего не подозревающим Джеком. Единственная, кто ему может помочь, это девушка Така — журналистка Лидия…



Выпущено: Warner Bros.
Продолжительность: 01:59:49
Перевод: Дублированный (Варус-видео) + Многоголосый закадровый.

Файл
Кодек: x264
Качество: HDRip-AVC
Видео: 1024x576 (16:9), 23.976 fps, ~2018 kbps
Аудио #1: AC-3, 2 ch, 192 kbps (Дубляж, Варус-видео)
Аудио #2: AC-3, 6 ch, 384 kbps (Многоголосый закадровый)
Субтитры: Русские, Английские
General
Unique ID : 25601023473783054716968900511360546432 (0x134293E8D5744EC1A1103E84AAC6F680)
Complete name : D:КИНОВнутреннее пространство.(1989).HDRIP-AVC.(576p).[-=DoMiNo=-].mkv
Format : Matroska
Format version : Version 4 / Version 2
File size : 2.17 GiB
Duration : 1 h 59 min
Overall bit rate : 2 598 kb/s
Movie name : Внутреннее пространство
Deion : Американский пилот лейтенант Так Пендлтон принимает участие в эксперименте, в процессе которого он должен быть очень сильно уменьшен в размерах и в летательном аппарате, похожем на подлодку обследовать внутреннее пространство кролика. Но технотеррористы рушат все планы и похищают шприц, в котором находился миниатюризированый Так.По ошибке содержимое шприца попадает в ипохондрика Джека Паттера. Теперь террористы начинают охотиться за ничего не подозревающим Джеком. Единственная, кто ему может помочь, это девушка Така — журналистка Лидия…
Writing application : XviD4PSP 7.0.318 DAILY
Writing library : Lavf57.41.100 / Lavf57.41.100
Cover : Yes
Attachments : cover.jpg
ACTORS : Деннис Куэйд, Мартин Шорт, Мег Райан, Кевин МакКарти, Фиона Льюис, Вернон Уэллс, Роберт Пикардо, Уэнди Шаал, Гарольд Сильвестр, Уильям Шэллерт, Генри Гибсон, Джон Хора, Марк Л. Тейлор, Орсон Бин, Кевин Хукс, Кэтлин Фримен, Арчи Хан, Дик Миллер, Кеннет Тоби, Джо Флаэрти, Андреа Мартин, Джейсон Ласкей, Фрэнк Миллер, Шоун Нельсон, Кристин Авила, Александра Борри, Дженни Гэго, Роберт Гунли, Грейнджер Хайнс, Майк Гарибальди, Ричард МакГонагл, Теренс МакГоверн, Роберт Нечс, Рэнс Ховард, Чак Джонс, Лора Уотербери, Курт Браунрайтер, Роберт Грэй, Брюстер Сирс, Алан Блюменфилд, Джефри Боум, Сидни Сквайр, Пол Барселу, Джон Миранда, Джордан Бенжамин, Роберто Рамирез, Вирджиния Бойл, Херб Митчелл, Джон Харвуд, Нил Росс, Чарльз Эйдмен, Джо Данте, Lorenzo Gaspar, Артур Кэйн, Анита Сакс, Джеймс Вандерворт
COMPOSER : Джерри Голдсмит
COUNTRY : США
DATE : 1987
DIRECTOR : Джо Данте
ENCODING_INFO : MATROSKA,WEBM > MKV / H264 > X264 VBR-2P 2018kbps Произвольный / AC3 > COPY / AC3 > COPY
GENRE : фантастика, фэнтези, боевик, триллер, комедия, приключения
HD_VIDEO : 1
IMDB_RATING : 6.70
ITUNEXTC : mpaa|PG|200|
MEDIA_TYPE : 9
ORIGINAL_ACTORS : Dennis Quaid, Martin Short, Meg Ryan, Kevin McCarthy, Fiona Lewis, Vernon Wells, Robert Picardo, Wendy Schaal, Harold Sylvester, William Schallert, Henry Gibson, John Hora, Mark L. Taylor, Orson Bean, Kevin Hooks, Kathleen Freeman, Archie Hahn, Dick Miller, Kenneth Tobey (в титрах: Ken Tobey), Joe Flaherty, Andrea Martin, Jason Laskay, Frank Miller, Shawn Nelson, Christine Avila, Alexandra Borrie, Jenny Gago, Robert Gounley, Grainger Hines, Mike Garibaldi, Richard McGonagle, Terence McGovern, Robert Neches, Rance Howard, Chuck Jones, Laura Waterbury, Kurt Braunreiter, Robert Gray, Brewster Sears, Alan Blumenfeld, Jeffrey Boam, Sydne Squire, Paul Barselou, John Miranda, Jordan Benjamin, Roberto Ramirez, Virginia Boyle, Herb Mitchell, John Harwood, Neil Ross, Charles Aidman, Joe Dante, Arthur Kane, Anita Sax, James Vandervort
ORIGINAL_TITLE : Innerspace
PRODUCER : Майкл Финнелл, Питер Губер, Кэтлин Кеннеди, Фрэнк Маршалл, Джон Питерс, Чип Прозер, Стивен Спилберг
RATING : 7.297
WRITER : Чип Прозер, Джефри Боум

Video
ID : 1
Format : AVC
Format/Info : Advanced Video Codec
Format profile : High@L4.1
Format settings, CABAC : Yes
Format settings, ReFrames : 12 frames
Codec ID : V_MPEG4/ISO/AVC
Duration : 1 h 59 min
Bit rate : 2 018 kb/s
Width : 1 024 pixels
Height : 576 pixels
Display aspect ratio : 16:9
Frame rate mode : Constant
Frame rate : 23.976 (24000/1001) FPS
Color space : YUV
Chroma subsampling : 4:2:0
Bit depth : 8 bits
Scan type : Progressive
Bits/(Pixel*Frame) : 0.143
Stream size : 1.65 GiB (76%)
Title : RIP by -=DoMiNo=-
Writing library : x264 core 148 r2721M 72d53ab
Encoding settings : cabac=1 / ref=12 / deblock=1:-3:-3 / analyse=0x3:0x133 / me=umh / subme=11 / psy=1 / psy_rd=1.00:0.10 / mixed_ref=1 / me_range=32 / chroma_me=1 / trellis=2 / 8x8dct=1 / cqm=0 / deadzone=21,11 / fast_pskip=0 / chroma_qp_offset=-3 / threads=5 / lookahead_threads=1 / sliced_threads=0 / nr=0 / decimate=1 / interlaced=0 / bluray_compat=0 / constrained_intra=0 / bframes=11 / b_pyramid=2 / b_adapt=2 / b_bias=0 / direct=3 / weightb=1 / open_gop=0 / weightp=2 / keyint=230 / keyint_min=23 / scenecut=40 / intra_refresh=0 / rc_lookahead=60 / rc=2pass / mbtree=1 / bitrate=2018 / ratetol=1.0 / qcomp=0.70 / qpmin=0 / qpmax=69 / qpstep=4 / cplxblur=20.0 / qblur=0.5 / ip_ratio=1.40 / aq=1:1.00
Language : English
Default : Yes
Forced : No
DURATION : 01:59:48.598000000

Audio #1
ID : 2
Format : AC-3
Format/Info : Audio Coding 3
Mode extension : CM (complete main)
Format settings, Endianness : Big
Codec ID : A_AC3
Duration : 1 h 59 min
Bit rate mode : Constant
Bit rate : 192 kb/s
Channel(s) : 2 channels
Channel positions : Front: L R
Sampling rate : 48.0 kHz
Frame rate : 31.250 FPS (1536 spf)
Bit depth : 16 bits
Compression mode : Lossy
Stream size : 165 MiB (7%)
Title : Дубляж, Варус-видео
Language : Russian
Default : Yes
Forced : No
DURATION : 01:59:42.048000000

Audio #2
ID : 3
Format : AC-3
Format/Info : Audio Coding 3
Mode extension : CM (complete main)
Format settings, Endianness : Big
Codec ID : A_AC3
Duration : 1 h 59 min
Bit rate mode : Constant
Bit rate : 384 kb/s
Channel(s) : 6 channels
Channel positions : Front: L C R, Side: L R, LFE
Sampling rate : 48.0 kHz
Frame rate : 31.250 FPS (1536 spf)
Bit depth : 16 bits
Compression mode : Lossy
Stream size : 329 MiB (15%)
Title : Многоголосый закадровый
Language : Russian
Default : No
Forced : No
DURATION : 01:59:42.016000000

Text #1
ID : 4
Format : UTF-8
Codec ID : S_TEXT/UTF8
Codec ID/Info : UTF-8 Plain Text
Title : Rus
Language : Russian
Default : Yes
Forced : No
DURATION : 01:55:45.340000000

Text #2
ID : 5
Format : UTF-8
Codec ID : S_TEXT/UTF8
Codec ID/Info : UTF-8 Plain Text
Title : Eng
Language : English
Default : No
Forced : No
DURATION : 01:55:28.011000000

Menu
00:00:00.000 : :Chapter 01
00:02:21.056 : :Chapter 02
00:05:02.509 : :Chapter 03
00:08:28.173 : :Chapter 04
00:11:24.057 : :Chapter 05
00:16:48.631 : :Chapter 06
00:19:44.557 : :Chapter 07
00:22:41.942 : :Chapter 08
00:24:48.653 : :Chapter 09
00:28:13.566 : :Chapter 10
00:31:43.483 : :Chapter 11
00:35:53.818 : :Chapter 12
00:40:01.190 : :Chapter 13
00:46:02.300 : :Chapter 14
00:50:30.360 : :Chapter 15
00:55:33.121 : :Chapter 16
00:57:13.972 : :Chapter 17
01:00:05.643 : :Chapter 18
01:03:38.940 : :Chapter 19
01:07:55.320 : :Chapter 20
01:12:48.238 : :Chapter 21
01:17:06.912 : :Chapter 22
01:18:27.536 : :Chapter 23
01:21:35.930 : :Chapter 24
01:24:37.780 : :Chapter 25
01:27:15.896 : :Chapter 26
01:30:15.368 : :Chapter 27
01:33:46.453 : :Chapter 28
01:39:12.654 : :Chapter 29
01:41:43.095 : :Chapter 30
01:46:22.292 : :Chapter 31
01:49:15.047 : :Chapter 32
01:52:21.024 : :Chapter 33
01:55:39.890 : :Chapter 34
01:59:48.389 : :Chapter 35



Скачать Внутреннее.пространство.Innerspace.(Джо.Данте).[1987.фантастика.фэнтези.боевик.триллер.комедия.приключения.HDRip-AVC].[Dub]+[MVO]+[Sub]x2.torrent без регистрации
Золото ЗОЛОТАЯ РАЗДАЧА! СКАЧАННОЕ НЕ ЗАСЧИТЫВАЕТСЯ! Золото
Дата: Зарегистрирован   [ Тип: внутренний ] Как тут cкачать?
MAGNET ссылка
MAGNET ссылка


Скачать .torrent

12 KB

Статус: проверено DHT
Скачан: торрент - 8 раз, раздача полностью - 9 раз
Размер: 2,17 GB
Оценка:  - (Голосов: 0)
Поблагодарили: 3
Поделиться ссылкой на эту раздачу с друзьями:
В контактеFacebookОдноклассникиTwitterLivejournalМой МирLiveinternet
 

 
Показать сообщения:    


Вы не можете начинать темы
Вы не можете отвечать на сообщения
Вы не можете редактировать свои сообщения
Вы не можете удалять свои сообщения
Вы не можете голосовать в опросах
Вы не можете прикреплять файлы к сообщениям
Вы можете скачивать файлы