Loading...
Error

Скачать Сыщики - любители экстра класса / The Persuaders! (сезон 01) (Лесли Норман) [1971-1972, боевик, комедия, приключения, BDRip-AVC] [MVO]+[Eng] торрент без регистрации

 
Статистика раздачи
Размер:  34,78 GB   |    Скачан:  4 раза
Сидов:  1  [  0 KB/s  ]  
 
Автор Сообщение

МихаНЕзатор

[] 

Информация о фильме
Название: Сыщики - любители экстра класса
Оригинальное название: The Persuaders!
Год выхода: 1971-1972
Жанр: боевик, комедия, приключения
Режиссер: Лесли Норман

В ролях: Тони Кёртис, Роджер Мур, Лоуренс Нэйсмит, Джон Эчесон, Нил Арден, Бруно Барнаби, Майкл Годфри, Алекс Скотт, Сьюзен Джордж, Альфред Маркс, Бальбина, Хьюго Де Вернье, Жан Дриан, Харольд Голдблатт, Чарльз Хьюстон, Хью Мэннинг, Майкл МакСтэй, Шинейд Кьюсак, Ричард Харндолл, Вероника Херст, Джон Келланд, Сью Ллойд, Гарфилд Морган, Виктор Платт

О фильме: Состоятельные плэйбой — англичанин лорд Бретт Синклер и американец до мозга костей Дэнни Уайлд — объединились с судьёй Фултоном для расследования преступлений, которые оказались не под силу полиции.



Страна: Великобритания
Студия: Incorporated Television Company (ITC), Television Reporters International Tribune
Продолжительность: 24 x ~ 00:51:50
Перевод: Профессиональный многоголосый

Файл
Кодек: x264
Качество: BDRip (AVC)
Видео: MPEG-4 AVC, ~ 3600 Кбит/с, 768x576, 24 кадр/с
Звук: Русский, английский (AC3, 2 ch, 192 Кбит/с)

АНОНСЫ ПОПУЛЯРНЫХ РАЗДАЧ
01. Пролог / Overture
02. Золотой Наполеон / The Gold Napoleon
03. Ставка семь миллионов / Take Seven
04. Поместье / Greensleeves
05. Смена власти / Powerswitch
06. Время и место / The Time and the Place
07. Двойник / Someone Like Me
08. Играют все / Anyone Can Play
09. Старый, новый и смертельный / The Old, the New, and the Deadly
10. Энджи... Энджи / Angie... Angie
11. Цепь событий / Chain of Events
12. Я вместо тебя / That's Me Over There
13. Долгое прощание / The Long Goodbye
14. На прицеле / The Man in the Middle
15. Элемент риска / Element of Risk
16. Мой дом / A Home of One's Own
17. Пять миль до полуночи / Five Miles to Midnight
18. Индекс верности / Nuisance Value
19. Похмельное утро / The Morning After
20. По прочтении уничтожить / Read and Destroy
21. Смерть в семье / A Death in the Family
22. Наследство Озеровых / The Ozerov Inheritance
23. Насмерть / To the Death, Baby
24. Затаившийся враг / Someone Waiting
Koenig
Исходник: PERSUADERS_1971-1972_BD-REMUX_HDCLUB
Перевод: Профессиональный многоголосый (чистый вариант)
Сохранены оригинальные главы как на Blu-ray.
Общее
Уникальный идентификатор : 175018300801641978004868247580563414115 (0x83AB4C7335C444138B8AAA072E631C63)
Полное имя : PERSUADERSPersuaders.E24.mkv
Формат : Matroska
Версия формата : Version 4 / Version 2
Размер файла : 1,45 Гбайт
Продолжительность : 51 м.
Общий поток : 3999 Кбит/сек
Дата кодирования : UTC 2016-04-08 15:30:38
Программа кодирования : mkvmerge v7.7.0 ('Six Voices') 32bit built on Feb 28 2015 23:23:00
Библиотека кодирования : libebml v1.3.1 + libmatroska v1.4.2
DURATION : 00:51:53.376000000
NUMBER_OF_FRAMES : 97293
NUMBER_OF_BYTES : 74721024
_STATISTICS_WRITING_APP : mkvmerge v7.7.0 ('Six Voices') 32bit built on Feb 28 2015 23:23:00
_STATISTICS_WRITING_DATE_UTC : 2016-04-08 15:30:38
_STATISTICS_TAGS : BPS DURATION NUMBER_OF_FRAMES NUMBER_OF_BYTES

Видео
Идентификатор : 1
Формат : AVC
Формат/Информация : Advanced Video Codec
Профиль формата : High@L4.1
Параметр CABAC формата : Да
Параметр ReFrames формата : 9 кадров
Идентификатор кодека : V_MPEG4/ISO/AVC
Продолжительность : 51 м.
Битрейт : 3612 Кбит/сек
Ширина : 768 пикселей
Высота : 576 пикселей
Соотношение сторон : 4:3
Режим частоты кадров : Постоянный
Частота кадров : 24,000 кадра/сек
Цветовое пространство : YUV
Субдискретизация насыщенности : 4:2:0
Битовая глубина : 8 бит
Тип развёртки : Прогрессивная
Бит/(Пиксели*Кадры) : 0.340
Размер потока : 1,28 Гбайт (88%)
Библиотека кодирования : x264 core 146 r2538 121396c
Настройки программы : cabac=1 / ref=9 / deblock=1:-3:-3 / analyse=0x3:0x113 / me=umh / subme=9 / psy=1 / psy_rd=1.00:0.00 / mixed_ref=1 / me_range=32 / chroma_me=1 / trellis=2 / 8x8dct=1 / cqm=0 / deadzone=21,11 / fast_pskip=0 / chroma_qp_offset=-2 / threads=3 / lookahead_threads=1 / sliced_threads=0 / nr=0 / decimate=1 / interlaced=0 / bluray_compat=0 / constrained_intra=0 / bframes=9 / b_pyramid=2 / b_adapt=2 / b_bias=0 / direct=3 / weightb=1 / open_gop=0 / weightp=2 / keyint=240 / keyint_min=24 / scenecut=40 / intra_refresh=0 / rc_lookahead=40 / rc=2pass / mbtree=1 / bitrate=3612 / ratetol=1.0 / qcomp=0.60 / qpmin=10 / qpmax=51 / qpstep=4 / cplxblur=20.0 / qblur=0.5 / vbv_maxrate=50000 / vbv_bufsize=62500 / nal_hrd=none / filler=0 / ip_ratio=1.40 / aq=1:1.00
Default : Да
Forced : Нет

Аудио #1
Идентификатор : 2
Формат : AC-3
Формат/Информация : Audio Coding 3
Профиль формата : Dolby Digital
Расширение режима : CM (complete main)
Параметр Endianness формата : Big
Идентификатор кодека : A_AC3
Продолжительность : 51 м.
Вид битрейта : Постоянный
Битрейт : 192 Кбит/сек
Каналы : 2 канала
Расположение каналов : Front: L R
Частота : 48,0 КГц
Метод сжатия : С потерями
Размер потока : 71,3 Мбайт (5%)
Язык : Russian
Default : Да
Forced : Нет

Аудио #2
Идентификатор : 3
Формат : AC-3
Формат/Информация : Audio Coding 3
Расширение режима : CM (complete main)
Параметр Endianness формата : Big
Идентификатор кодека : A_AC3
Продолжительность : 51 м.
Вид битрейта : Постоянный
Битрейт : 192 Кбит/сек
Каналы : 2 канала
Расположение каналов : Front: L R
Частота : 48,0 КГц
Метод сжатия : С потерями
Размер потока : 71,3 Мбайт (5%)
Язык : English
Default : Нет
Forced : Нет

Меню
00:00:00.000 : en:
00:04:42.791 : en:
00:11:29.625 : en:
00:18:02.416 : en:
00:21:21.416 : en:
00:26:11.791 : en:
00:31:04.791 : en:
00:37:41.375 : en:
00:41:04.791 : en:
00:46:49.541 : en:
00:51:53.333 : en:



Скачать Сыщики.-.любители.экстра.класса.The.Persuaders!.(сезон.01).(Лесли.Норман).[1971-1972.боевик.комедия.приключения.BDRip-AVC].[MVO]+[Eng].torrent без регистрации
Золото ЗОЛОТАЯ РАЗДАЧА! СКАЧАННОЕ НЕ ЗАСЧИТЫВАЕТСЯ! Золото
Дата: Зарегистрирован   [ Тип: внутренний ] Как тут cкачать?
MAGNET ссылка
MAGNET ссылка


Скачать .torrent

176 KB

Статус: проверено DHT
Скачан: торрент - 4 раз, раздача полностью - 2 раз
Размер: 34,78 GB
Оценка:  - (Голосов: 0)
Поблагодарили: 1
Поделиться ссылкой на эту раздачу с друзьями:
В контактеFacebookОдноклассникиTwitterLivejournalМой МирLiveinternet
 

 
Показать сообщения:    


Вы не можете начинать темы
Вы не можете отвечать на сообщения
Вы не можете редактировать свои сообщения
Вы не можете удалять свои сообщения
Вы не можете голосовать в опросах
Вы не можете прикреплять файлы к сообщениям
Вы можете скачивать файлы