Loading...
Error

Скачать Папа Гринвич-Виллидж / The Pope of Greenwich Village (Стюарт Розенберг) [1984, боевик, драма, комедия, криминал, BDRip-AVC] [DVO]+[AVO]+[Оригинал]+[Sub] торрент без регистрации

 
Статистика раздачи
Размер:  1,46 GB   |    Скачан:  3 раза
Сидов:  1  [  0 KB/s  ]  
 
Автор Сообщение

Marsianka

[] 

Папа Гринвич-Виллидж / Крестный отец Гринвич-Виллидж / The Pope of Greenwich Village

Страна: США
Жанр: боевик, драма, комедия, криминал
Год выпуска: 1984
Продолжительность: 02:00:38

Режиссер: Стюарт Розенберг / Stuart Rosenberg

В ролях: Эрик Робертс, Микки Рурк, Дэрил Ханна, Джеральдин Пейдж, Кеннет МакМиллан, Тони Мусанте, М. Эммет Уолш, Берт Янг

Описание: Поли и Чарли были друзьями детства. Чарли не раз вытаскивал своего приятеля из всяческих дерьмовых историй, и не случайно однажды именно он решил организовать ограбление одной частной фирмы, чтобы доказать Чарли наличие у себя кое-каких способностей. Поли умолчал об одном — о том, что избранная им фирма служила лишь ширмой-прикрытием для махинаций местного мафиози «Постельного Клопа» Эдди…



Качество видео: BDRip-AVC
Формат видео: MKV

Видео: AVC, 1342 kbps, 960x520 (16:9), 23.976 fps
Перевод: Профессиональный (двухголосый закадровый) НТВ+
Перевод 2: Авторский (одноголосый закадровый) А. Пронин
Cубтитры: английские
Оригинальная аудиодорожка: английский
Аудио #1: AAC LC, ~ 128 kbps, VBR, 48.0 KHz, 2 ch (Russian, DVO)
Аудио #2: AAC LC, ~ 128 kbps, VBR, 48.0 KHz, 2 ch (Russian, AVO)
Аудио #3: AAC LC, ~ 128 kbps, VBR, 48.0 KHz, 2 ch (English)
Формат субтитров: softsub (SRT)
[Information] [11.05.2016 2:09:42] Standard error stream
-[Information] [11.05.2016 2:09:54] raw [info]: 960x520p 1:1 @ 24000/1001 fps (cfr)
-[Information] [11.05.2016 2:09:54] x264 [info]: using SAR=1/1
-[Information] [11.05.2016 2:09:54] x264 [info]: using cpu capabilities: MMX2 SSE2Fast SSSE3 SSE4.2 AVX
-[Information] [11.05.2016 2:09:54] x264 [info]: profile High, level 4.1
-[Information] [11.05.2016 11:55:00] x264 [info]: frame I:1233 Avg QP:18.41 size: 45343
-[Information] [11.05.2016 11:55:00] x264 [info]: frame P:33675 Avg QP:20.85 size: 14491
-[Information] [11.05.2016 11:55:00] x264 [info]: frame B:138638 Avg QP:22.70 size: 4834
-[Information] [11.05.2016 11:55:00] x264 [info]: consecutive B-frames: 1.2% 1.5% 5.8% 14.3% 13.1% 46.0% 10.3% 3.1% 2.0% 1.4% 1.3%
-[Information] [11.05.2016 11:55:00] x264 [info]: mb I I16..4: 2.4% 85.4% 12.2%
-[Information] [11.05.2016 11:55:00] x264 [info]: mb P I16..4: 0.7% 8.2% 1.0% P16..4: 50.4% 19.1% 13.8% 0.2% 0.0% skip: 6.6%
-[Information] [11.05.2016 11:55:00] x264 [info]: mb B I16..4: 0.0% 0.6% 0.1% B16..8: 45.5% 9.0% 1.8% direct: 3.8% skip:39.2% L0:46.7% L1:48.5% BI: 4.9%
-[Information] [11.05.2016 11:55:00] x264 [info]: 8x8 transform intra:83.9% inter:73.2%
-[Information] [11.05.2016 11:55:00] x264 [info]: direct mvs spatial:99.0% temporal:1.0%
-[Information] [11.05.2016 11:55:00] x264 [info]: coded y,uvDC,uvAC intra: 87.0% 69.1% 27.7% inter: 19.3% 11.1% 0.2%
-[Information] [11.05.2016 11:55:00] x264 [info]: i16 v,h,dc,p: 25% 16% 8% 50%
-[Information] [11.05.2016 11:55:00] x264 [info]: i8 v,h,dc,ddl,ddr,vr,hd,vl,hu: 14% 7% 4% 9% 15% 15% 13% 12% 11%
-[Information] [11.05.2016 11:55:00] x264 [info]: i4 v,h,dc,ddl,ddr,vr,hd,vl,hu: 13% 7% 2% 9% 15% 17% 14% 12% 12%
-[Information] [11.05.2016 11:55:00] x264 [info]: i8c dc,h,v,p: 31% 27% 24% 18%
-[Information] [11.05.2016 11:55:00] x264 [info]: Weighted P-Frames: Y:3.1% UV:0.6%
-[Information] [11.05.2016 11:55:00] x264 [info]: ref P L0: 40.3% 11.1% 16.2% 6.1% 5.6% 4.0% 3.9% 2.0% 2.0% 1.6% 1.6% 1.3% 1.3% 1.1% 1.1% 0.8%
-[Information] [11.05.2016 11:55:00] x264 [info]: ref B L0: 64.5% 12.3% 6.9% 3.6% 2.7% 2.4% 1.9% 1.1% 1.0% 0.9% 0.8% 0.7% 0.6% 0.4% 0.2%
-[Information] [11.05.2016 11:55:00] x264 [info]: ref B L1: 90.4% 9.6%
-[Information] [11.05.2016 11:55:00] x264 [info]: kb/s:1341.79
-[Information] [11.05.2016 11:55:00] encoded 173546 frames, 4.94 fps, 1341.79 kb/s

Общее
Уникальный идентификатор : 233997233229411924620767309362023907392 (0xB00A3A5397D2A355BE9D4EC8D6F44040)
Формат : Matroska
Версия формата : Version 4 / Version 2
Размер файла : 1,46 Гбайт
Продолжительность : 2 ч. 0 м.
Общий поток : 1730 Кбит/сек
Дата кодирования : UTC 2016-05-12 11:06:43
Программа кодирования : mkvmerge v9.1.0 ('Little Earthquakes') 64bit
Библиотека кодирования : libebml v1.3.3 + libmatroska v1.4.4

Видео
Идентификатор : 1
Формат : AVC
Формат/Информация : Advanced Video Codec
Профиль формата : High@L4.1
Параметр CABAC формата : Да
Параметр ReFrames формата : 16 кадров
Идентификатор кодека : V_MPEG4/ISO/AVC
Продолжительность : 2 ч. 0 м.
Битрейт : 1342 Кбит/сек
Ширина : 960 пикселей
Высота : 520 пикселей
Соотношение сторон : 1,85:1
Режим частоты кадров : Постоянный
Частота кадров : 23,976 (24000/1001) кадра/сек
Цветовое пространство : YUV
Субдискретизация насыщенности : 4:2:0
Битовая глубина : 8 бит
Тип развёртки : Прогрессивная
Бит/(Пиксели*Кадры) : 0.112
Размер потока : 1,13 Гбайт (78%)
Библиотека кодирования : x264 core 148 r2638 7599210
Настройки программы : cabac=1 / ref=16 / deblock=1:0:0 / analyse=0x3:0x133 / me=umh / subme=10 / psy=1 / psy_rd=1.00:0.00 / mixed_ref=1 / me_range=32 / chroma_me=1 / trellis=2 / 8x8dct=1 / cqm=0 / deadzone=21,11 / fast_pskip=1 / chroma_qp_offset=-2 / threads=6 / lookahead_threads=1 / sliced_threads=0 / nr=0 / decimate=1 / interlaced=0 / bluray_compat=0 / constrained_intra=0 / bframes=10 / b_pyramid=2 / b_adapt=2 / b_bias=0 / direct=3 / weightb=1 / open_gop=0 / weightp=2 / keyint=240 / keyint_min=23 / scenecut=40 / intra_refresh=0 / rc_lookahead=60 / rc=2pass / mbtree=0 / bitrate=1342 / ratetol=1.0 / qcomp=0.60 / qpmin=0 / qpmax=69 / qpstep=4 / cplxblur=20.0 / qblur=0.5 / vbv_maxrate=62500 / vbv_bufsize=78125 / nal_hrd=none / filler=0 / ip_ratio=1.40 / pb_ratio=1.30 / aq=1:1.00
Default : Да
Forced : Нет

Аудио #1
Идентификатор : 2
Формат : AAC
Формат/Информация : Advanced Audio Codec
Профиль формата : LC
Идентификатор кодека : A_AAC
Продолжительность : 2 ч. 0 м.
Битрейт : 128 Кбит/сек
Каналы : 2 канала
Расположение каналов : Front: L R
Частота : 48,0 КГц
Частота кадров : 46,875 кадров/сек (1024 spf)
Метод сжатия : С потерями
Задержка видео : 9 мс.
Размер потока : 110 Мбайт (7%)
Заголовок : Russian, DVO
Язык : Russian
Default : Да
Forced : Нет

Аудио #2
Идентификатор : 3
Формат : AAC
Формат/Информация : Advanced Audio Codec
Профиль формата : LC
Идентификатор кодека : A_AAC
Продолжительность : 2 ч. 0 м.
Битрейт : 128 Кбит/сек
Каналы : 2 канала
Расположение каналов : Front: L R
Частота : 48,0 КГц
Частота кадров : 46,875 кадров/сек (1024 spf)
Метод сжатия : С потерями
Задержка видео : 9 мс.
Размер потока : 110 Мбайт (7%)
Заголовок : Russian, AVO
Язык : Russian
Default : Нет
Forced : Нет

Аудио #3
Идентификатор : 4
Формат : AAC
Формат/Информация : Advanced Audio Codec
Профиль формата : LC
Идентификатор кодека : A_AAC
Продолжительность : 2 ч. 0 м.
Битрейт : 128 Кбит/сек
Каналы : 2 канала
Расположение каналов : Front: L R
Частота : 48,0 КГц
Частота кадров : 46,875 кадров/сек (1024 spf)
Метод сжатия : С потерями
Задержка видео : 9 мс.
Размер потока : 110 Мбайт (7%)
Заголовок : English
Язык : English
Default : Нет
Forced : Нет

Текст
Идентификатор : 5
Формат : UTF-8
Идентификатор кодека : S_TEXT/UTF8
Идентификатор кодека/Информация : UTF-8 Plain Text
Продолжительность : 1 ч. 59 м.
Битрейт : 70 бит/сек
Count of elements : 1652
Размер потока : 62,2 Кбайт (0%)
Заголовок : English
Язык : English
Default : Да
Forced : Да

Меню
00:00:00.054 : en:00:00:00.054 / en:00:00:00.054 / en:00:00:00.054



Скачать Папа.Гринвич-Виллидж.The.Pope.of.Greenwich.Village.(Стюарт.Розенберг).[1984.боевик.драма.комедия.криминал.BDRip-AVC].[DVO]+[AVO]+[Оригинал]+[Sub].torrent без регистрации
Золото ЗОЛОТАЯ РАЗДАЧА! СКАЧАННОЕ НЕ ЗАСЧИТЫВАЕТСЯ! Золото
Дата: Зарегистрирован   [ Тип: внутренний ] Как тут cкачать?
MAGNET ссылка
MAGNET ссылка


Скачать .torrent

15 KB

Статус: проверено DHT
Скачан: торрент - 3 раз, раздача полностью - 0 раз
Размер: 1,46 GB
Оценка:  - (Голосов: 0)
Поблагодарили: 1
Поделиться ссылкой на эту раздачу с друзьями:
В контактеFacebookОдноклассникиTwitterLivejournalМой МирLiveinternet
 

 
Показать сообщения:    


Вы не можете начинать темы
Вы не можете отвечать на сообщения
Вы не можете редактировать свои сообщения
Вы не можете удалять свои сообщения
Вы не можете голосовать в опросах
Вы не можете прикреплять файлы к сообщениям
Вы можете скачивать файлы