Loading...
Error

Скачать Радиоволна / Frequency (01x01-06 из 10) (Брэд Андерсон и др.) [2016, фэнтези, драма, приключения, WEB-DLRip-AVC] [MVO (AlexFilm)] торрент без регистрации

 
Статистика раздачи
Размер:  3,22 GB   |    Скачан:  4 раза
Сидов:  3  [  0 KB/s  ]   Личеров:  2  [  0 KB/s  ]  
 
Автор Сообщение

МихаНЕзатор

[] 

Информация о фильме
Название: Радиоволна
Оригинальное название: Frequency
Год выпуска: 2016
Жанр: фантастика, фэнтези, триллер, драма, детектив
Режиссер: Брэд Андерсон , Джон Т. Кречмер , Нина Лопес-Коррадо

В ролях: Пейтон Лист (Raimy Sullivan), Мекхай Файфер (Satch Rayna), Дэниэл Бонжур (Daniel Lawrence), Девин Келли (Julie Sullivan), Райли Смит (Frank Sullivan), Ленни Джейкобсон (Gordo), Энтони Руйвивар (Stan Hope), Александра Мец (Maya Gowan), Майкл Роман (Thomas Goff), Гари Чок (Ivan Damjanov), Шон О. Робертс (Ricky), Вив Ликок (Young Chester)

Описание: В основе сюжета сериала лежит история офицера полиции, которой однажды удалось установить связь с помощью радиоволн в своей машине с родным, давно ушедшим отцом. Он был, как и дочь, полицейским детективом, и погиб в 1996 году. Вместе они практикуют странный тандем, который занимается расследованием нераскрытых дел об убийстве. Однако, такая вневременная помощь и советы от потустороннего партнера приводят к усложнению привычной жизни детектива, внося в нее элементы беспорядка и путаницы.

Релиз от: by

Страна: США
Перевод: Профессиональный многоголосый [AlexFilm]
Продолжительность: ~ 00:42:26 серия

Качество: WEB-DLRip-AVC
Формат: MKV
Видео: AVC, 1024x576 (16:9), 1259 kbps, 23,976 fps, 0,089 bpp
Аудио: русский / AC3 / 5.1 / 48 kHz / 384 kbps / |AlexFilm|

АНОНСЫ ПОПУЛЯРНЫХ РАЗДАЧ

General
Unique ID : 186607088467649718899283769796430770805 (0x8C6337CBAAFF855BB3F0CD5FF429B275)
Complete name : E:Frequency Season 1 WEB-DLRip-AVC R.G.Resident.AlexFilmFrequency.s01e01.WEB-DLRip-AVC.by.White Smoke.R.G.Resident.AlexFilm.mkv
Format : Matroska
Format version : Version 4 / Version 2
File size : 499 MiB
Duration : 42 min
Overall bit rate : 1 644 kb/s
Movie name : Frequency.s01e01.WEB-DLRip-AVC.by.White Smoke.R.G.Resident.AlexFilm.mkv
Encoded date : UTC 2016-10-12 00:36:59
Writing application : mkvmerge v6.8.0 ('Theme for Great Cities') 64bit built on Mar 2 2014 21:34:26
Writing library : libebml v1.3.0 + libmatroska v1.4.1

Video
ID : 1
Format : AVC
Format/Info : Advanced Video Codec
Format profile : High@L4.1
Format settings, CABAC : Yes
Format settings, ReFrames : 12 frames
Codec ID : V_MPEG4/ISO/AVC
Duration : 42 min
Bit rate : 1 259 kb/s
Width : 1 024 pixels
Height : 576 pixels
Display aspect ratio : 16:9
Frame rate mode : Constant
Frame rate : 23.976 (24000/1001) FPS
Color space : YUV
Chroma subsampling : 4:2:0
Bit depth : 8 bits
Scan type : Progressive
Bits/(Pixel*Frame) : 0.089
Stream size : 373 MiB (75%)
Writing library : x264 core 148 r2638 7599210
Encoding settings : cabac=1 / ref=12 / deblock=1:-3:-3 / analyse=0x3:0x113 / me=umh / subme=9 / psy=1 / psy_rd=1.00:0.00 / mixed_ref=1 / me_range=32 / chroma_me=1 / trellis=2 / 8x8dct=1 / cqm=0 / deadzone=21,11 / fast_pskip=1 / chroma_qp_offset=-2 / threads=12 / lookahead_threads=3 / sliced_threads=0 / nr=0 / decimate=1 / interlaced=0 / bluray_compat=0 / constrained_intra=0 / bframes=12 / b_pyramid=2 / b_adapt=2 / b_bias=10 / direct=1 / weightb=0 / open_gop=0 / weightp=2 / keyint=230 / keyint_min=23 / scenecut=40 / intra_refresh=0 / rc_lookahead=40 / rc=2pass / mbtree=1 / bitrate=1259 / ratetol=1.0 / qcomp=0.85 / qpmin=0 / qpmax=69 / qpstep=4 / cplxblur=20.0 / qblur=0.5 / ip_ratio=1.40 / aq=1:1.00
Language : English
Default : Yes
Forced : No

Audio
ID : 2
Format : AC-3
Format/Info : Audio Coding 3
Mode extension : CM (complete main)
Format settings, Endianness : Big
Codec ID : A_AC3
Duration : 42 min
Bit rate mode : Constant
Bit rate : 384 kb/s
Channel(s) : 6 channels
Channel positions : Front: L C R, Side: L R, LFE
Sampling rate : 48.0 kHz
Frame rate : 31.250 FPS (1536 spf)
Compression mode : Lossy
Stream size : 117 MiB (23%)
Title : DD 5.1 AlexFilm
Language : Russian
Default : Yes
Forced : No

Перевод: Елизавета Фэйм

Роли озвучивали: Евгения Тихонова, Екатерина Муравицкая, Михаил Суслов, Владимир Курдов, Станислав Черсков

Когда раздача ведётся путём добавления новых серий, при каждом добавлении создётся новый торрент. Чтобы начать докачку новой серии, пользователям необходимо сделать следующее:
(1) остановить скачивание,
(2) удалить старый торрент у себя из клиента (старые серии удалять не надо),
(3) скачать новый торрент и запустить его у себя в клиенте вместо старого, при этом указать клиенту путь в старую папку, куда и должно происходить скачивание новых серий.
Ваш клиент при этом должен произвести хеширование (проверку) старой папки (если не производит сам - помогите ему сделать это), и будет докачивать только те серии, которых у вас ещё нет. Старые серии при этом не удаляются, а продолжают раздаваться!
Eсли вы уже удалили старые серии, то предотвратить повторную закачку старых серий можно, отжав галочку в соответсвующих местах при запуске нового торрента. По возможности, желательно не удалять старые серии как можно дольше, чтобы релизёр не столько продолжал раздавать старые серии, а смог сконцентрироваться на новых.



Скачать Радиоволна.Frequency.(01x01-06.из.10).(Брэд.Андерсон.и.др.).[2016.фэнтези.драма.приключения.WEB-DLRip-AVC].[MVO.(AlexFilm)].torrent без регистрации
Золото ЗОЛОТАЯ РАЗДАЧА! СКАЧАННОЕ НЕ ЗАСЧИТЫВАЕТСЯ! Золото
Дата: Зарегистрирован   [ Тип: внешний ] Как тут cкачать?
MAGNET ссылка
MAGNET ссылка


Скачать .torrent

18 KB

Статус: проверено DHT
Скачан: торрент - 4 раз, раздача полностью - 1 раз
Размер: 3,22 GB
Оценка:  - (Голосов: 0)
Поблагодарили: 1
Поделиться ссылкой на эту раздачу с друзьями:
В контактеFacebookОдноклассникиTwitterLivejournalМой МирLiveinternet
 

 
Показать сообщения:    


Вы не можете начинать темы
Вы не можете отвечать на сообщения
Вы не можете редактировать свои сообщения
Вы не можете удалять свои сообщения
Вы не можете голосовать в опросах
Вы не можете прикреплять файлы к сообщениям
Вы можете скачивать файлы