Loading...
Error

Скачать Корпорация / Incorporated (Сезон 01, серии 01 из 10) (Давид Пастор, Алекс Пастор, Дэвид Гроссман) [2016, Фантастика, триллер, HDTVRip] [MVO] (IdeaFilm) торрент без регистрации

 
Статистика раздачи
Размер:  642 MB   |    Скачан:  8 раз
Сидов:  1  [  0 KB/s  ]  
 
Автор Сообщение

leon030982

[] 

Корпорация / Incorporated


Год выпуска: 2016
Жанр: Фантастика, триллер
Выпущено: США, CBS Television Studios, Pearl Street Films
Продолжительность: 1 x ~ 00:42:00
Перевод: Профессиональный (многоголосый) [IdeaFilm]
Субтитры: нет

Режиссер: Давид Пастор, Алекс Пастор, Дэвид Гроссман

В ролях: Шон Тил, Эллисон Миллер, Эдди Рамос, Джулия Ормонд, Дэймон Херриман, Дениза Тонтц, Саад Сиддикуи, Мо Жюди-Ламур

О фильме: Мужчина пытается обрушить гигантскую корпорацию, которая, как кажется, обладает неограниченной властью.



Качество: HDTVRip
Формат: AVI
Видео кодек: XvID
Аудио кодек: AC3
Видео: XviD, ~ 1500 Кбит/с, 720x400, 23,976 fps
Аудио: 48 kHz, AC3, 6 ch, 384 kbps
General
Complete name : E:\Incorporated.S01.HDTVRip\Incorporated.S01E01.HDTVRip-IDEAFILM.avi
Format : AVI
Format/Info : Audio Video Interleave
File size : 642 MiB
Duration : 47mn 25s
Overall bit rate : 1 892 Kbps
Writing application : VirtualDubMod 1.5.10.2 (build 2540/release)
Writing library : VirtualDubMod build 2540/release

Video
ID : 0
Format : MPEG-4 Visual
Format profile : Advanced Simple@L5
Format settings, BVOP : 2
Format settings, QPel : No
Format settings, GMC : No warppoints
Format settings, Matrix : Default (MPEG)
Codec ID : XVID
Codec ID/Hint : XviD
Duration : 47mn 25s
Bit rate : 1 424 Kbps
Width : 720 pixels
Height : 400 pixels
Display aspect ratio : 16:9
Frame rate : 23.976 fps
Color space : YUV
Chroma subsampling : 4:2:0
Bit depth : 8 bits
Scan type : Progressive
Compression mode : Lossy
Bits/(Pixel*Frame) : 0.206
Stream size : 483 MiB (75%)
Writing library : XviD 1.2.1 (UTC 2008-12-04)

Audio
ID : 1
Format : AC-3
Format/Info : Audio Coding 3
Mode extension : CM (complete main)
Format settings, Endianness : Big
Codec ID : 2000
Duration : 47mn 25s
Bit rate mode : Constant
Bit rate : 384 Kbps
Channel(s) : 6 channels
Channel positions : Front: L C R, Side: L R, LFE
Sampling rate : 48.0 KHz
Compression mode : Lossy
Stream size : 130 MiB (20%)
Alignment : Split accross interleaves
Внимание! Раздача ведётся путём добавления новых серий; при каждом добавлении создётся новый торрент. Чтобы начать докачку новой серии, пользователям необходимо сделать следующее: (1) остановить скачивание, (2) удалить старый торрент у себя из клиента (старые серии удалять не надо), (3) скачать новый торрент и запустить его у себя в клиенте вместо старого, при этом указать клиенту путь в старую папку куда и должно происходить скачивание новых серий.
Ваш клиент при этом должен произвести хеширование (проверку) старой папки (если не производит сам - помогите ему сделать это), и будет докачивать только те серии которых у вас ещё нет. Старые серии при этом не удаляются, а продолжают раздаваться!
Eсли вы уже удалили старые серии, то предотвратить повторную закачку старых серий можно, отжав галочку в соответсвующих местах при запуске нового торрента.



Скачать Корпорация.Incorporated.(Сезон.01.серии.01.из.10).(Давид.Пастор.Алекс.Пастор.Дэвид.Гроссман).[2016.Фантастика.триллер.HDTVRip].[MVO].(IdeaFilm).torrent без регистрации
Золото ЗОЛОТАЯ РАЗДАЧА! СКАЧАННОЕ НЕ ЗАСЧИТЫВАЕТСЯ! Золото
Дата: Зарегистрирован   [ Тип: внутренний ] Как тут cкачать?
MAGNET ссылка
MAGNET ссылка


Скачать .torrent

13 KB

Статус: проверено DHT
Скачан: торрент - 8 раз, раздача полностью - 5 раз
Размер: 642 MB
Оценка:  - (Голосов: 0)
Поблагодарили: 1
Поделиться ссылкой на эту раздачу с друзьями:
В контактеFacebookОдноклассникиTwitterLivejournalМой МирLiveinternet
 

 
Показать сообщения:    


Вы не можете начинать темы
Вы не можете отвечать на сообщения
Вы не можете редактировать свои сообщения
Вы не можете удалять свои сообщения
Вы не можете голосовать в опросах
Вы не можете прикреплять файлы к сообщениям
Вы можете скачивать файлы