Loading...
Error

Скачать Корона / The Crown (Сезон 01) (Бенжамин Карон, Стивен Долдри, Филип Мартин) [2016, Историческая драма, WEBRip] [1080p] [MVO] (Jaskier) + 5x[Subs] (Eng,Fre,Ger,Ita,Spa) + [Orig] торрент без регистрации

 
Статистика раздачи
Размер:  44,05 GB   |    Скачан:  7 раз
Сидов:  1  [  0 KB/s  ]  
 
Автор Сообщение

leon030982

[] 


Корона | The Crown


Год выпуска: 2016
Страна: Великобритания / Sony Pictures Television Production UK
Жанр: Историческая драма
Продолжительность: ~ 00:59:00
Перевод: Профессиональный (многоголосый закадровый) | Jaskier
Субтитры: Английские, испанские, французские, немецкие, итальянские

Режиссёр: Бенжамин Карон, Стивен Долдри, Филип Мартин

В ролях: Дэниэл Беттс, Джеймс Хиллер, Джереми Нортэм, Джаред Харрис, Ник Оуэнфорд, Мартин Бишоп, Рита МакДональд Дампер, Карл Фаррер и др.

Описание: Нередко сериалы посвящают историческим личностям, которые внесли огромный вклад в развитие различных научных сфер деятельности или культуры. Но если сериал посвящают человеку при жизни, то значит он того явно заслужил. В центре внимания истории "Корона" находится британская королева Елизавета Вторая, которая славится своей харизматичной личностью и умением держать страну "на коротком поводке". Перед нами сериал, который рассказывает о состоянии дел британского правительства на момент окончания Второй Мировой Войны. Жизнь сложно назвать простой и беззаботной, поэтому английские высшие чины пытаются поднять с колен ранее величайшую империю.



Качество: WEBRip 1080p
Контейнер: MKV
Видео: AVC, 1920x960 (2.000:1), 25.000 fps ~10000 kbps
Аудио 1: AC3, 48 kHz, 6 ch, 384 kbps Русский
Аудио 2: AC3, 48 kHz, 6 ch, 384 kbps Оригинал (Английский)
Переведено и озвучено: студией Jaskier
General
Unique ID : 207761311505946050164720639527815681355 (0x9C4D5F843B54D9B6BCD1BA122BDF154B)
Complete name : D:\Torrent\The.Crown.S01.1080p.WEBRip.DD5.1.X264\The.Crown.S01E01.Wolferton.Splash.1080p.WEBRip.DD5.1.X264.mkv
Format : Matroska
Format version : Version 4 / Version 2
File size : 4.58 GiB
Duration : 56 min 10 s
Overall bit rate : 11.7 Mb/s
Encoded date : UTC 2016-11-08 17:04:03
Writing application : mkvmerge v9.5.0 ('Quiet Fire') 64bit
Writing library : libebml v1.3.4 + libmatroska v1.4.5
Cover : Yes
Attachments : cover.jpg

Video
ID : 1
Format : AVC
Format/Info : Advanced Video Codec
Format profile : High@L4.1
Format settings, CABAC : Yes
Format settings, ReFrames : 4 frames
Codec ID : V_MPEG4/ISO/AVC
Duration : 56 min 10 s
Bit rate : 10.9 Mb/s
Width : 1 920 pixels
Height : 960 pixels
Display aspect ratio : 2.000
Frame rate mode : Constant
Frame rate : 25.000 FPS
Color space : YUV
Chroma subsampling : 4:2:0
Bit depth : 8 bits
Scan type : Progressive
Bits/(Pixel*Frame) : 0.237
Stream size : 4.28 GiB (93%)
Writing library : x264 core 148 r2721+7 72d53ab / tmod 162ad1b X86_64
Encoding settings : cabac=1 / ref=4 / deblock=1:-3:-3 / analyse=0x3:0x133 / me=umh / subme=11 / psy=1 / fade_compensate=0.00 / psy_rd=1.05:0.15 / mixed_ref=1 / me_range=36 / chroma_me=1 / trellis=2 / 8x8dct=1 / cqm=0 / deadzone=6,6 / fast_pskip=0 / chroma_qp_offset=-3 / threads=12 / lookahead_threads=3 / sliced_threads=0 / nr=0 / decimate=0 / interlaced=0 / bluray_compat=0 / constrained_intra=0 / fgo=0 / bframes=10 / b_pyramid=2 / b_adapt=2 / b_bias=0 / direct=3 / weightb=1 / open_gop=0 / weightp=2 / keyint=250 / keyint_min=25 / scenecut=40 / intra_refresh=0 / rc=crf / mbtree=0 / crf=17.0000 / qcomp=0.75 / qpmin=0:0:0 / qpmax=69:69:69 / qpstep=4 / ip_ratio=1.10 / pb_ratio=1.10 / aq=3:0.70 / aq-sensitivity=10.00 / aq-factor=1.00:1.00:1.00 / aq2=0 / aq3=0
Language : English
Default : Yes
Forced : No

Audio #1
ID : 2
Format : AC-3
Format/Info : Audio Coding 3
Mode extension : CM (complete main)
Format settings, Endianness : Big
Codec ID : A_AC3
Duration : 56 min 10 s
Bit rate mode : Constant
Bit rate : 384 kb/s
Channel(s) : 6 channels
Channel positions : Front: L C R, Side: L R, LFE
Sampling rate : 48.0 kHz
Frame rate : 31.250 FPS (1536 spf)
Bit depth : 16 bits
Compression mode : Lossy
Stream size : 154 MiB (3%)
Language : Russian
Default : Yes
Forced : No

Audio #2
ID : 3
Format : AC-3
Format/Info : Audio Coding 3
Mode extension : CM (complete main)
Format settings, Endianness : Big
Codec ID : A_AC3
Duration : 56 min 10 s
Bit rate mode : Constant
Bit rate : 384 kb/s
Channel(s) : 6 channels
Channel positions : Front: L C R, Side: L R, LFE
Sampling rate : 48.0 kHz
Frame rate : 31.250 FPS (1536 spf)
Bit depth : 16 bits
Compression mode : Lossy
Stream size : 154 MiB (3%)
Language : English
Default : No
Forced : No

Text #1
ID : 4
Format : UTF-8
Codec ID : S_TEXT/UTF8
Codec ID/Info : UTF-8 Plain Text
Duration : 51 min 56 s
Bit rate : 46 b/s
Count of elements : 521
Stream size : 17.5 KiB (0%)
Title : English
Language : English
Default : No
Forced : No

Text #2
ID : 5
Format : UTF-8
Codec ID : S_TEXT/UTF8
Codec ID/Info : UTF-8 Plain Text
Duration : 54 min 26 s
Bit rate : 51 b/s
Count of elements : 615
Stream size : 20.4 KiB (0%)
Title : English (SDH)
Language : English
Default : No
Forced : No

Text #3
ID : 6
Format : UTF-8
Codec ID : S_TEXT/UTF8
Codec ID/Info : UTF-8 Plain Text
Duration : 54 min 15 s
Bit rate : 45 b/s
Count of elements : 508
Stream size : 18.2 KiB (0%)
Title : French
Language : French
Default : No
Forced : No

Text #4
ID : 7
Format : UTF-8
Codec ID : S_TEXT/UTF8
Codec ID/Info : UTF-8 Plain Text
Duration : 54 min 15 s
Bit rate : 44 b/s
Count of elements : 551
Stream size : 17.8 KiB (0%)
Title : German
Language : German
Default : No
Forced : No

Text #5
ID : 8
Format : UTF-8
Codec ID : S_TEXT/UTF8
Codec ID/Info : UTF-8 Plain Text
Duration : 52 min 49 s
Bit rate : 45 b/s
Count of elements : 512
Stream size : 17.7 KiB (0%)
Title : Italian
Language : Italian
Default : No
Forced : No

Text #6
ID : 9
Format : UTF-8
Codec ID : S_TEXT/UTF8
Codec ID/Info : UTF-8 Plain Text
Duration : 54 min 15 s
Bit rate : 46 b/s
Count of elements : 540
Stream size : 18.6 KiB (0%)
Title : Spanish
Language : Spanish
Default : No
Forced : No
Когда раздача ведётся путём добавления новых серий, при каждом добавлении создётся новый торрент. Чтобы начать докачку новой серии, пользователям необходимо сделать следующее:
(1) остановить скачивание,
(2) удалить старый торрент у себя из клиента (старые серии удалять не надо),
(3) скачать новый торрент и запустить его у себя в клиенте вместо старого, при этом указать клиенту путь в старую папку, куда и должно происходить скачивание новых серий.
Ваш клиент при этом должен произвести хеширование (проверку) старой папки (если не производит сам - помогите ему сделать это), и будет докачивать только те серии, которых у вас ещё нет. Старые серии при этом не удаляются, а продолжают раздаваться!
Eсли вы уже удалили старые серии, то предотвратить повторную закачку старых серий можно, отжав галочку в соответсвующих местах при запуске нового торрента. По возможности, желательно не удалять старые серии как можно дольше, чтобы релизёр не столько продолжал раздавать старые серии, а смог сконцентрироваться на новых.

Внимание. В раздаче серии 7 и 8 перепутаны местами!



Скачать Корона.The.Crown.(Сезон.01).(Бенжамин.Карон.Стивен.Долдри.Филип.Мартин).[2016.Историческая.драма.WEBRip].[1080p].[MVO].(Jaskier).+.5x[Subs].(Eng.Fre.Ger.Ita.Spa).+.[Orig].torrent без регистрации
Золото ЗОЛОТАЯ РАЗДАЧА! СКАЧАННОЕ НЕ ЗАСЧИТЫВАЕТСЯ! Золото
Дата: Зарегистрирован   [ Тип: внутренний ] Как тут cкачать?
MAGNET ссылка
MAGNET ссылка


Скачать .torrent

111 KB

Статус: проверено DHT
Скачан: торрент - 7 раз, раздача полностью - 12 раз
Размер: 44,05 GB
Оценка:  5 (Голосов: 1)
Поблагодарили: 1
Поделиться ссылкой на эту раздачу с друзьями:
В контактеFacebookОдноклассникиTwitterLivejournalМой МирLiveinternet
 

 
Показать сообщения:    


Вы не можете начинать темы
Вы не можете отвечать на сообщения
Вы не можете редактировать свои сообщения
Вы не можете удалять свои сообщения
Вы не можете голосовать в опросах
Вы не можете прикреплять файлы к сообщениям
Вы можете скачивать файлы