Loading...
Error

Скачать Миллион лет до нашей эры / One Million Years B.C. (Дон Чэффи) [1966, исторический, фэнтези, HDRip] [Полная британская версия] [AVO] торрент без регистрации

 
Статистика раздачи
Размер:  744 MB   |    Скачан:  16 раз
Сидов:  1  [  0 KB/s  ]  
 
Автор Сообщение

Marsianka

[] 

Название: Миллион лет до нашей эры
Оригинальное название: One Million Years B.C.
Год выпуска: 1966
Жанр: исторический, фэнтези
Режиссёр: Дон Чэффи / Don Chaffey
В ролях: Рэкел Уэлч, Джон Ричардсон, Перси Херберт, Роберт Браун, Мартин Бесвик, Жан Влэдон, Лиза Томас, Малья Наппи, Ричард Джеймс, Уильям Лион Браун

Описание: Действие фильма происходит в вымышленное доисторическое время. Пещерные люди сосуществуют в одном мире с динозаврами и фантастическими существами. Главный герой фильма Тумак изгнан из своего родного племени. После многих дней скитаний по пустыне, едва живого, его спасают от смерти незнакомые ему воины. Новые соплеменники гораздо более цивилизованы и продвинулись дальше в эволюции: имеют более совершенный язык, едят с тарелок, проводят обряд похорон. Тумак сближается с девушкой Лоаной. Тумак пытается украсть копьё одного из воинов, но оказывается пойман и изгнан из племени вместе с Лоаной. Тумак и Лоана вынуждены скитаться, постоянно спасаясь от полной опасности доисторической фауны...



Страна: Великобритания
Студия: Hammer Films, Seven Arts Pictures, Associated British-Pathé Limited
Продолжительность: 01:40:22
Перевод: Авторский (одноголосый, закадровый) - Михаил Иванов - вступительное слово на русском, далее - только жесты и мимика героев фильма

Файл
Формат: avi
Качество: HDRip (BDRip.1080p)
Видео: XviD, 640x384, 23.976fps, 900kbps
Аудио: MPEG Layer 3, 2ch, 48000Hz, 128kbps


General
Complete name : Million.Let.Do.Nashei.Ery.1966.A.HDRip.700.PBV.CurHaJI.avi
Format : AVI
Format/Info : Audio Video Interleave
File size : 744 MiB
Duration : 1h 40mn
Overall bit rate : 1 036 Kbps
Movie name : Million.Let.Do.Nashei.Ery.1966.A.HDRip.700.PBV.CurHaJI
Writing application : VirtualDubMod 1.5.10.3 | www.virtualdub-fr.org || (build 2550/release)
Writing library : VirtualDub build 35491/release

Video
ID : 0
Format : MPEG-4 Visual
Format profile : Advanced Simple@L5
Format settings, BVOP : 1
Format settings, QPel : No
Format settings, GMC : No warppoints
Format settings, Matrix : Custom
Codec ID : XVID
Codec ID/Hint : XviD
Duration : 1h 40mn
Bit rate : 900 Kbps
Width : 640 pixels
Height : 384 pixels
Display aspect ratio : 1.667
Frame rate : 23.976 fps
Color space : YUV
Chroma subsampling : 4:2:0
Bit depth : 8 bits
Scan type : Progressive
Compression mode : Lossy
Bits/(Pixel*Frame) : 0.153
Stream size : 645 MiB (87%)
Writing library : XviD 1.2.1 (UTC 2008-12-04)

Audio
ID : 1
Format : MPEG Audio
Format version : Version 1
Format profile : Layer 3
Codec ID : 55
Codec ID/Hint : MP3
Duration : 1h 40mn
Bit rate mode : Constant
Bit rate : 128 Kbps
Channel(s) : 2 channels
Sampling rate : 48.0 KHz
Compression mode : Lossy
Stream size : 91.9 MiB (12%)
Alignment : Aligned on interleaves
Interleave, duration : 42 ms (1.00 video frame)
Interleave, preload duration : 504 ms
Writing library : LAME3.99r
Encoding settings : -m s -V 4 -q 2 -lowpass 17 -b 128
Релиз от:



Скачать Миллион.лет.до.нашей.эры.One.Million.Years.B.C.(Дон.Чэффи).[1966.исторический.фэнтези.HDRip].[Полная.британская.версия].[AVO].torrent без регистрации
Золото ЗОЛОТАЯ РАЗДАЧА! СКАЧАННОЕ НЕ ЗАСЧИТЫВАЕТСЯ! Золото
Дата: Зарегистрирован   [ Тип: внутренний ] Как тут cкачать?
MAGNET ссылка
MAGNET ссылка


Скачать .torrent

15 KB

Статус: проверено DHT
Скачан: торрент - 16 раз, раздача полностью - 29 раз
Размер: 744 MB
Оценка:  4 (Голосов: 1)
Поблагодарили: 2
Поделиться ссылкой на эту раздачу с друзьями:
В контактеFacebookОдноклассникиTwitterLivejournalМой МирLiveinternet
 

 
Показать сообщения:    


Вы не можете начинать темы
Вы не можете отвечать на сообщения
Вы не можете редактировать свои сообщения
Вы не можете удалять свои сообщения
Вы не можете голосовать в опросах
Вы не можете прикреплять файлы к сообщениям
Вы можете скачивать файлы