Loading...
Error

Скачать Окончательный анализ / Final Analysis (Фил Джоану) [1992, триллер, драма, мелодрама, WEBRip] [Dub] торрент без регистрации

 
Статистика раздачи
Размер:  1,41 GB   |    Скачан:  3 раза
Сидов:  1  [  0 KB/s  ]  
 
Автор Сообщение

Marsianka

[] 



Информация о фильме
Название: Окончательный анализ
Оригинальное название: Final Analysis
Год выхода: 1992
Жанр: триллер, драма, мелодрама
Режиссер: Фил Джоану / Phil Joanou
В ролях: Ричард Гир /Richard Gere/, Ким Бейсингер /Kim Basinger/, Ума Турман /Uma Thurman/, Эрик Робертс /Eric Roberts/, Пол Гилфойл /Paul Guilfoyle/, Кит Дэвид /Keith David/, Роберт Харпер /Robert Harper/, Агустин Родригес /Agustin Rodriguez/, Рита Зохар /Rita Zohar/, Джордж Мёрдок /George Murdock/, Ширли Престиа /Shirley Prestia/, Тони Дженаро /Tony Genaro/

О фильме:
Барр, известный специалист в области психиатрии, очарован ослепительной сестрой своей пациентки. Он начинает ухаживать за ней, не подозревая, что попадает в хитроумную и опасную ловушку…
Его возлюбленная замужем за мафиози и панически боится супруга. Но однажды вечером она убивает благоверного. Доктор помогает замести следы, но вскоре начинает подозревать, что его обманывают…



Страна: США
Продолжительность: 02:04:37
Перевод: Профессиональный (полное дублирование) Мост Видео

Файл
Кодек: XviD
Качество: WEBRip c WEBRip 1080p
Видео: 704x400, 23.976 fps, XviD build 73 ~ 1419 kbps
Аудио: 48 kHz, AC3 Dolby Digital, 2/0 (L,R) ch, ~192.00 kbps
Общее
Полное имя : Final.Analysis.1992.WEBRip.avi
Формат : AVI
Формат/Информация : Audio Video Interleave
Размер файла : 1,41 Гбайт
Продолжительность : 2 ч. 4 м.
Общий поток : 1620 Кбит/сек
Программа кодирования : VirtualDubMod 1.5.10.3 | www.virtualdub-fr.org || (build 2550/release)
Библиотека кодирования : VirtualDubMod build 2550/release

Видео
Идентификатор : 0
Формат : MPEG-4 Visual
Профиль формата : Advanced Simple@L5
Параметр BVOP формата : 2
Параметр QPel формата : Нет
Параметр GMC формата : Без точки перехода
Параметр матрицы формата : Выборочная
Идентификатор кодека : XVID
Идентификатор кодека/Подсказка : XviD
Продолжительность : 2 ч. 4 м.
Битрейт : 1419 Кбит/сек
Ширина : 704 пикс.
Высота : 400 пикс.
Соотношение сторон : 16:9
Частота кадров : 23,976 кадр/сек
Цветовое пространство : YUV
Подвыборка цветности : 4:2:0
Битовая глубина : 8 бит
Тип развёртки : Прогрессивная
Метод сжатия : С потерями
Бит/(Пиксели*Кадры) : 0.210
Размер потока : 1,23 Гбайт (88%)
Библиотека кодирования : XviD 73

Аудио
Идентификатор : 1
Формат : AC-3
Формат/Информация : Audio Coding 3
Расширение режима : CM (complete main)
Идентификатор кодека : 2000
Продолжительность : 2 ч. 4 м.
Вид битрейта : Постоянный
Битрейт : 192 Кбит/сек
Канал(ы) : 2 канала(ов)
Расположение каналов : Front: L R
Частота : 48,0 КГц
Битовая глубина : 16 бит
Метод сжатия : С потерями
Размер потока : 171 Мбайт (12%)
Выравнивание : Разделение по промежуткам
Продолжительность промежутка : 42 мс. (1,00 видеокадр)
Время предзагрузки промежутка : 500 ms



Скачать Окончательный.анализ.Final.Analysis.(Фил.Джоану).[1992.триллер.драма.мелодрама.WEBRip].[Dub].torrent без регистрации
Золото ЗОЛОТАЯ РАЗДАЧА! СКАЧАННОЕ НЕ ЗАСЧИТЫВАЕТСЯ! Золото
Дата: Зарегистрирован   [ Тип: внутренний ] Как тут cкачать?
MAGNET ссылка
MAGNET ссылка


Скачать .torrent

15 KB

Статус: проверено DHT
Скачан: торрент - 3 раз, раздача полностью - 1 раз
Размер: 1,41 GB
Оценка:  - (Голосов: 0)
Поблагодарили: 0
Поделиться ссылкой на эту раздачу с друзьями:
В контактеFacebookОдноклассникиTwitterLivejournalМой МирLiveinternet
 

 
Показать сообщения:    


Вы не можете начинать темы
Вы не можете отвечать на сообщения
Вы не можете редактировать свои сообщения
Вы не можете удалять свои сообщения
Вы не можете голосовать в опросах
Вы не можете прикреплять файлы к сообщениям
Вы можете скачивать файлы