Loading...
Error

Скачать Рапа Нуи: Потерянный рай / Rapa Nui (Кевин Рейнольдс) [1994, приключения, драма, исторический, DVDRip] [MVO]+[DVO]+[AVO]x2+[Оригинал] торрент без регистрации

 
Статистика раздачи
Размер:  2,05 GB   |    Скачан:  3 раза
Сидов:  1  [  0 KB/s  ]  
 
Автор Сообщение

Marsianka

[] 



Страна: США
Производство: Majestic Films International, Newcomm, RCS
Жанр: приключения, драма, исторический
Год выпуска: 1994
Продолжительность: 01:42:24
Перевод: Профессиональный многоголосый, профессиональный двухголосый, авторский(Гаврилов, Кашкин)
Оригинальная аудиодорожка: Английская
Режиссер: Кевин Рейнольдс
В ролях: Джейсон Скотт Ли, Сандрин Холт, Эсай Моралес, Джордж Хинар, Равири Паратен, Лоуренс Макор, Те Уотануи Скипуиз, Натаниел Лис, Грант МакФарланд, Рена Оуэн, Анзак Уоллес, Эру Потака, Гордон Хатфилд, Хори Ахипене, Клифф Кёртис, Генри Ваеосо, Анжела Гриббен, Джейд Клэйтон, Шэйн Досон, Караитиана Безли, Дженни Хека, Майкл Йост, Питаке Туки

Описание: Конец XVII века. В южной части Тихого океана есть остров Рапа-Нуи (о-в Пасхи). Таинственный, загадочный остров. В этом забытом богом уголке жили люди, которые создавали каменные статуи — Моаи. Эти гигантские каменные фигуры, усеивающие весь остров, вырезали из мягкого вулканического туфа люди племени короткоухих - самого презираемого племени в этом райском уголке. Но девушки из "короткоухих" были на редкость красивы и трудолюбивы, и в одну из них - Раману, девушку поразительной красоты, влюбился Норо, юноша из старшего племени "длинноухих". Самый главный шаман острова Рапа-Нуи разрешил влюбленным пожениться, но только поставил условие: они должны пройти тяжелые испытания. Кому достанется самая красивая девушка в раю и кто станет правителем самого загадочного в мире острова?



Исходник: DVD9 R2
Тип релиза: DVDRip
Контейнер: AVI
Видео: 704x304 (2.32:1), 25 fps, XviD MPEG-4 ~1902 kbps avg, 0.35 bit/pixel
Аудио 1: 48 kHz, AC3 Dolby Digital, 2/0 (L,R) ch, ~192 kbps (русский)
Аудио 2: 48 kHz, AC3 Dolby Digital, 2/0 (L,R) ch, ~192 kbps (русский)
Аудио 3: 48 kHz, AC3 Dolby Digital, 2/0 (L,R) ch, ~192 kbps (русский)
Аудио 4: 48 kHz, AC3 Dolby Digital, 2/0 (L,R) ch, ~192 kbps (русский)
Аудио 5: 48 kHz, AC3 Dolby Digital, 2/0 (L,R) ch, ~192 kbps (английский)


Общее
Полное имя : D:ААА2Рапа Нуи.avi
Формат : AVI
Формат/Информация : Audio Video Interleave
Профиль формата : OpenDML
Размер файла : 2,05 Гбайт
Продолжительность : 1 ч. 42 м.
Общий поток : 2869 Кбит/сек
Программа кодирования : VirtualDubMod 1.5.10.2 (build 2540/release)
Библиотека кодирования : VirtualDubMod build 2540/release

Видео
Идентификатор : 0
Формат : MPEG-4 Visual
Профиль формата : Advanced Simple@L5
Параметр BVOP формата : 2
Параметр QPel формата : Нет
Параметр GMC формата : Без точки перехода
Параметр матрицы формата : Default (MPEG)
Режим смешивания : Сжатый битовый поток
Идентификатор кодека : XVID
Идентификатор кодека/Подсказка : XviD
Продолжительность : 1 ч. 42 м.
Битрейт : 1875 Кбит/сек
Ширина : 704 пикселя
Высота : 304 пикселя
Соотношение сторон : 2,35:1
Частота кадров : 25,000 кадров/сек
Цветовое пространство : YUV
Субдискретизация насыщенности : 4:2:0
Битовая глубина : 8 бит
Тип развёртки : Прогрессивная
Метод сжатия : С потерями
Бит/(Пиксели*Кадры) : 0.350
Размер потока : 1,34 Гбайт (65%)
Библиотека кодирования : XviD 1.2.1 (UTC 2008-12-04)

Аудио #1
Идентификатор : 1
Формат : AC-3
Формат/Информация : Audio Coding 3
Расширение режима : CM (complete main)
Параметр Endianness формата : Big
Идентификатор кодека : 2000
Продолжительность : 1 ч. 42 м.
Вид битрейта : Постоянный
Битрейт : 192 Кбит/сек
Каналы : 2 канала
Расположение каналов : Front: L R
Частота : 48,0 КГц
Битовая глубина : 16 бит
Метод сжатия : С потерями
Размер потока : 141 Мбайт (7%)
Выравнивание : Разделение по промежуткам
Продолжительность промежутка : 40 мс. (1,00 видеокадр)
Время предзагрузки промежутка : 500 мс.

Аудио #2
Идентификатор : 2
Формат : AC-3
Формат/Информация : Audio Coding 3
Расширение режима : CM (complete main)
Параметр Endianness формата : Big
Идентификатор кодека : 2000
Продолжительность : 1 ч. 42 м.
Вид битрейта : Постоянный
Битрейт : 192 Кбит/сек
Каналы : 2 канала
Расположение каналов : Front: L R
Частота : 48,0 КГц
Битовая глубина : 16 бит
Метод сжатия : С потерями
Размер потока : 141 Мбайт (7%)
Выравнивание : Разделение по промежуткам
Продолжительность промежутка : 40 мс. (1,00 видеокадр)
Время предзагрузки промежутка : 500 мс.

Аудио #3
Идентификатор : 3
Формат : AC-3
Формат/Информация : Audio Coding 3
Расширение режима : CM (complete main)
Параметр Endianness формата : Big
Идентификатор кодека : 2000
Продолжительность : 1 ч. 42 м.
Вид битрейта : Постоянный
Битрейт : 192 Кбит/сек
Каналы : 2 канала
Расположение каналов : Front: L R
Частота : 48,0 КГц
Битовая глубина : 16 бит
Метод сжатия : С потерями
Размер потока : 141 Мбайт (7%)
Выравнивание : Разделение по промежуткам
Продолжительность промежутка : 40 мс. (1,00 видеокадр)
Время предзагрузки промежутка : 500 мс.

Аудио #4
Идентификатор : 4
Формат : AC-3
Формат/Информация : Audio Coding 3
Расширение режима : CM (complete main)
Параметр Endianness формата : Big
Идентификатор кодека : 2000
Продолжительность : 1 ч. 42 м.
Вид битрейта : Постоянный
Битрейт : 192 Кбит/сек
Каналы : 2 канала
Расположение каналов : Front: L R
Частота : 48,0 КГц
Битовая глубина : 16 бит
Метод сжатия : С потерями
Размер потока : 141 Мбайт (7%)
Выравнивание : Разделение по промежуткам
Продолжительность промежутка : 40 мс. (1,00 видеокадр)
Время предзагрузки промежутка : 500 мс.

Аудио #5
Идентификатор : 5
Формат : AC-3
Формат/Информация : Audio Coding 3
Расширение режима : CM (complete main)
Параметр Endianness формата : Big
Идентификатор кодека : 2000
Продолжительность : 47 м.
Вид битрейта : Постоянный
Битрейт : 192 Кбит/сек
Каналы : 2 канала
Расположение каналов : Front: L R
Частота : 48,0 КГц
Битовая глубина : 16 бит
Метод сжатия : С потерями
Размер потока : 141 Мбайт (7%)
Выравнивание : Разделение по промежуткам
Продолжительность промежутка : 87 мс. (2,17 видеокадра)
Время предзагрузки промежутка : 500 мс.



Скачать Рапа.Нуи.Потерянный.рай.Rapa.Nui.(Кевин.Рейнольдс).[1994.приключения.драма.исторический.DVDRip].[MVO]+[DVO]+[AVO]x2+[Оригинал].torrent без регистрации
Золото ЗОЛОТАЯ РАЗДАЧА! СКАЧАННОЕ НЕ ЗАСЧИТЫВАЕТСЯ! Золото
Дата: Зарегистрирован   [ Тип: внутренний ] Как тут cкачать?
MAGNET ссылка
MAGNET ссылка


Скачать .torrent

11 KB

Статус: проверено DHT
Скачан: торрент - 3 раз, раздача полностью - 10 раз
Размер: 2,05 GB
Оценка:  - (Голосов: 0)
Поблагодарили: 0
Поделиться ссылкой на эту раздачу с друзьями:
В контактеFacebookОдноклассникиTwitterLivejournalМой МирLiveinternet
 

 
Показать сообщения:    


Вы не можете начинать темы
Вы не можете отвечать на сообщения
Вы не можете редактировать свои сообщения
Вы не можете удалять свои сообщения
Вы не можете голосовать в опросах
Вы не можете прикреплять файлы к сообщениям
Вы можете скачивать файлы