Loading...
Error

Скачать Ходячие мертвецы / The Walking Dead (07х01-07 из 16) (Эрнест Р. Дикерсон и др.) [2016, ужасы, триллер, драма, WEB-DLRip] [MVO (Jaskier)]+[Eng] торрент без регистрации

 
Статистика раздачи
Размер:  3,39 GB   |    Скачан:  6 раз
Сидов:  8  [  0 KB/s  ]   Личеров:  22  [  0 KB/s  ]  
 
Автор Сообщение

МихаНЕзатор

[] 

Год выпуска: 2016
Страна: США
Жанр: ужасы, триллер, драма
Режиссёр: Эрнест Р. Дикерсон, Грег Никотеро, Гай Ферленд

В ролях: Эндрю Линкольн, Скотт Уилсон, Данай Джекесай Гурира, Дэвид Моррисси, Стивен Юн, Лорен Коэн, Чендлер Риггз, Норман Ридус, Мелисса Сюзанн МакБрайд, Эмили Кинни, Чад Коулмэн, Сонеква Мартин

Описание: Сериал рассказывает историю жизни семьи шерифа после того, как «зомби» — эпидемия апокалипсических масштабов захлестнула земной шар. Шериф Рик Грайм путешествует со своей семьей и небольшой группой выживших в поисках безопасного места для жизни. Но постоянный страх смерти каждый день приносит тяжелые потери, заставляя героев почувствовать глубины человеческой жестокости.



Без посторонних надписей видеоряде

Продолжительность: ~ 00:45:00
Перевод: Профессиональный многоголосый закадровый Jaskier
Переводчик: Александр Митраков
Субтитры: отсутствуют

Качество: WEB-DLRip
Формат: AVI
Видео кодек: XviD
Аудио кодек: MP3
Видео: 658x368 (1.79:1), 23.976 fps, XviD build 73 ~1103 kbps avg, 0.21 bit/pixel
Аудио: mp3, 48.0 KHz, 2 ch, 128 kbps RU Jaskier
Аудио 2: mp3, 48.0 KHz, 2 ch, 128 kbps ENG

АНОНСЫ ПОПУЛЯРНЫХ РАЗДАЧ


Торрент обновлён, добавлена 7-я серия!

Общее
Полное имя : H:TWD s07�1.avi
Формат : AVI
Формат/Информация : Audio Video Interleave
Размер файла : 451 Мбайт
Продолжительность : 45 м. 58 с.
Общий поток : 1373 Кбит/сек
Программа кодирования : VirtualDubMod 1.5.10.3 | www.virtualdub-fr.org || (build 2550/release)
Библиотека кодирования : VirtualDubMod build 2550/release

Видео
Идентификатор : 0
Формат : MPEG-4 Visual
Профиль формата : Advanced Simple@L5
Параметр BVOP формата : 1
Параметр QPel формата : Нет
Параметр GMC формата : Без точки перехода
Параметр матрицы формата : Выборочная
Идентификатор кодека : XVID
Идентификатор кодека/Подсказка : XviD
Продолжительность : 45 м. 58 с.
Битрейт : 1103 Кбит/сек
Ширина : 656 пикселей
Высота : 368 пикселей
Соотношение сторон : 16:9
Частота кадров : 23,976 (24000/1001) кадра/сек
Цветовое пространство : YUV
Субдискретизация насыщенности : 4:2:0
Битовая глубина : 8 бит
Тип развёртки : Прогрессивная
Метод сжатия : С потерями
Бит/(Пиксели*Кадры) : 0.191
Размер потока : 363 Мбайт (80%)
Библиотека кодирования : XviD 73

Аудио #1
Идентификатор : 1
Формат : MPEG Audio
Версия формата : Version 1
Профиль формата : Layer 3
Идентификатор кодека : 55
Идентификатор кодека/Подсказка : MP3
Продолжительность : 45 м. 58 с.
Вид битрейта : Постоянный
Битрейт : 128 Кбит/сек
Каналы : 2 канала
Частота : 48,0 КГц
Метод сжатия : С потерями
Размер потока : 42,1 Мбайт (9%)
Выравнивание : Соединение по промежуткам
Продолжительность промежутка : 42 мс. (1,00 видеокадр)
Время предзагрузки промежутка : 504 мс.
Библиотека кодирования : LAME3.99rЄ

Аудио #2
Идентификатор : 2
Формат : MPEG Audio
Версия формата : Version 1
Профиль формата : Layer 3
Идентификатор кодека : 55
Идентификатор кодека/Подсказка : MP3
Продолжительность : 45 м. 58 с.
Вид битрейта : Постоянный
Битрейт : 128 Кбит/сек
Каналы : 2 канала
Частота : 48,0 КГц
Метод сжатия : С потерями
Размер потока : 42,1 Мбайт (9%)
Выравнивание : Соединение по промежуткам
Продолжительность промежутка : 42 мс. (1,00 видеокадр)
Время предзагрузки промежутка : 504 мс.
Библиотека кодирования : LAME3.99r
Настройки программы : -m s -V 4 -q 2 -lowpass 17 -b 128



Скачать Ходячие.мертвецы.The.Walking.Dead.(07х01-07.из.16).(Эрнест.Р.Дикерсон.и.др.).[2016.ужасы.триллер.драма.WEB-DLRip].[MVO.(Jaskier)]+[Eng].torrent без регистрации
Золото ЗОЛОТАЯ РАЗДАЧА! СКАЧАННОЕ НЕ ЗАСЧИТЫВАЕТСЯ! Золото
Дата: Зарегистрирован   [ Тип: внешний ] Как тут cкачать?
MAGNET ссылка
MAGNET ссылка


Скачать .torrent

137 KB

Статус: проверено DHT
Скачан: торрент - 6 раз, раздача полностью - 0 раз
Размер: 3,39 GB
Оценка:  5 (Голосов: 1)
Поблагодарили: 1
Поделиться ссылкой на эту раздачу с друзьями:
В контактеFacebookОдноклассникиTwitterLivejournalМой МирLiveinternet
 

 
Показать сообщения:    


Вы не можете начинать темы
Вы не можете отвечать на сообщения
Вы не можете редактировать свои сообщения
Вы не можете удалять свои сообщения
Вы не можете голосовать в опросах
Вы не можете прикреплять файлы к сообщениям
Вы можете скачивать файлы