Loading...
Error

Скачать Библиотекари / The Librarians (Сезон 03, серии 01-02 из 10) (Марк Роскин, Джонатан Фрейкс, Ноа Уайли) [2016, Приключения, WEB-DLRip] [MVO] ("LostFilm") торрент без регистрации

 
Автор Сообщение

leon030982

[] 


Библиотекари | The Librarians



Год выпуска: 2016
Страна: США
Жанр: Приключения
Продолжительность: ~ 00:55:00
Перевод: Профессиональный (многоголосый, закадровый) ["LostFilm"]
Субтитры: отсутствуют

Режиссёр: Марк Роскин, Джонатан Фрейкс, Ноа Уайли
В ролях: Ноа Уайли, Джон Ларрокетт, Ребекка Ромейн, Кристиан Кейн, Джон Ким, Линди Бут, Лесли-Энн Брандт, Джейн Куртин, Боб Ньюхарт, Бен Эндрюс

Описание: Сериал снят по мотивам серии фильмов «Библиотекарь», повествующей о Флинне Карсене, который узнает, что его миссия заключается в том, чтобы охранять магические артефакты в старинной библиотеке. Он вербует четырёх обычных людей, собирая команду по борьбе с тёмной магией и древними заговорами. Под его руководством они научатся самозащите и боевым приемам, чтобы отправиться на поиски загадочных артефактов и спасти их от злодеев, желающих захватить мир.




Качество: WEB-DLRip
Формат: AVI
Видео кодек: XviD
Аудио кодек: AC3
Видео: 720x400 (1.80:1), 23.976 fps, XviD build 50 ~1327 kbps avg, 0.178 bit/pixel
Аудио: 48,0 КГц, AC3, 2 канала, 192 Кбит/сек

Торент обновлен! Добавлена 2-я серия
General
Complete name : E:\INTERNET\The Librarians (Season 3) WEBDLRip Generalfilm\The.Librarians.S03E01.WEBDLRip.Generalfilm.avi
Format : AVI
Format/Info : Audio Video Interleave
File size : 449 MiB
Duration : 42mn 12s
Overall bit rate : 1 587 Kbps
Writing application : VirtualDubMod 1.5.10.2 (build 2540/release)
Writing library : VirtualDubMod build 2540/release

Video
ID : 0
Format : MPEG-4 Visual
Format profile : Advanced Simple@L5
Format settings, BVOP : 1
Format settings, QPel : No
Format settings, GMC : No warppoints
Format settings, Matrix : Default (MPEG)
Codec ID : XVID
Codec ID/Hint : XviD
Duration : 42mn 12s
Bit rate : 1 327 Kbps
Width : 720 pixels
Height : 400 pixels
Display aspect ratio : 16:9
Frame rate : 23.976 fps
Color space : YUV
Chroma subsampling : 4:2:0
Bit depth : 8 bits
Scan type : Progressive
Compression mode : Lossy
Bits/(Pixel*Frame) : 0.178
Stream size : 371 MiB (83%)
Writing library : XviD 67

Audio
ID : 1
Format : AC-3
Format/Info : Audio Coding 3
Mode extension : CM (complete main)
Format settings, Endianness : Big
Codec ID : 2000
Duration : 42mn 12s
Bit rate mode : Constant
Bit rate : 192 Kbps
Channel(s) : 2 channels
Channel positions : Front: L R
Sampling rate : 48.0 KHz
Compression mode : Lossy
Stream size : 58.0 MiB (13%)
Alignment : Split accross interleaves

Когда раздача ведётся путём добавления новых серий, при каждом добавлении создётся новый торрент. Чтобы начать докачку новой серии, пользователям необходимо сделать следующее:
(1) остановить скачивание,
(2) удалить старый торрент у себя из клиента (старые серии удалять не надо),
(3) скачать новый торрент и запустить его у себя в клиенте вместо старого, при этом указать клиенту путь в старую папку, куда и должно происходить скачивание новых серий.
Ваш клиент при этом должен произвести хеширование (проверку) старой папки (если не производит сам - помогите ему сделать это), и будет докачивать только те серии, которых у вас ещё нет. Старые серии при этом не удаляются, а продолжают раздаваться!
Eсли вы уже удалили старые серии, то предотвратить повторную закачку старых серий можно, отжав галочку в соответсвующих местах при запуске нового торрента. По возможности, желательно не удалять старые серии как можно дольше, чтобы релизёр не столько продолжал раздавать старые серии, а смог сконцентрироваться на новых.
Библиотекари.The.Librarians.(Сезон.03.серии.01-02.из.10).(Марк.Роскин.Джонатан.Фрейкс.Ноа.Уайли).[2016.Приключения.WEB-DLRip].[MVO].("LostFilm").torrent
Раздачи: Не зарегистрирован

Скачать .torrent

18 KB

Добавлен:
Скачано: 12 раз
   
 

МихаНЕзатор

[] 

/viewtopic.php?p=669434#669434
 
Показать сообщения:    


Вы не можете начинать темы
Вы не можете отвечать на сообщения
Вы не можете редактировать свои сообщения
Вы не можете удалять свои сообщения
Вы не можете голосовать в опросах
Вы не можете прикреплять файлы к сообщениям
Вы можете скачивать файлы