Loading...
Error

Скачать Голиаф / Goliath (Сезон 01) (Лоуренс Триллинг, Алик Сахаров, Билл Д Элиа) [2016, драма, WEBRip] [MVO] (NewStudio) торрент без регистрации

 
Статистика раздачи
Размер:  5,47 GB   |    Скачан:  23 раза
Сидов:  1  [  0 KB/s  ]  
 
Автор Сообщение

leon030982

[] 


Голиаф | Goliath


• Год выпуска: 2016
• Страна: США
• Жанр: драма
• Продолжительность: 1х~ 00:55:00
• Перевод: Профессиональный (многоголосный, закадровый) | NewStudio

• Режиссёр: Лоуренс Триллинг, Алик Сахаров, Билл Д Элиа

• В ролях: Билли Боб Торнтон, Уильям Хёрт, Мария Белло, Оливия Тирлби, Нина Арианда, Молли Паркер, Таня Рэймонд, Сара Уайнтер, Бритен Далтон, Дэймон Гаптон

• Описание: В руки опального адвоката, гоняющегося за машинами скорой помощи в поисках новых клиентов, попадает дело, которое может принести ему искупление или, по крайней мере, возможность отомстить фирме, вышвырнувшей его на улицу



• Качество: WEBRip
• Формат: AVI
• Видео: XviD, ~ 1500 Кбит/с, 720x360, 23,976 fps
• Аудио #1: MP3, 48 kHz, 2 ch, 128 kbps, CBR - Rus
• Аудио #2: MP3, 48 kHz, 2 ch, 128 kbps, CBR - Eng
• Субтитры: отсутствуют

Перевод: Юлия Мейер, Александра Цернант, Алексей Корягин, Булат Карабасов
General
Complete name : E:\INTERNET\Goliath.s01.WEBRip.NewStudio\Goliath.s01e01.WEBRip.NewStudio.avi
Format : AVI
Format/Info : Audio Video Interleave
File size : 700 MiB
Duration : 55mn 26s
Overall bit rate : 1 766 Kbps
Writing application : VirtualDubMod 1.5.10.2 (build 2540/release)
Writing library : VirtualDubMod build 2540/release

Video
ID : 0
Format : MPEG-4 Visual
Format profile : Advanced Simple@L5
Format settings, BVOP : 2
Format settings, QPel : Yes
Format settings, GMC : No warppoints
Format settings, Matrix : Default (MPEG)
Muxing mode : Packed bitstream
Codec ID : XVID
Codec ID/Hint : XviD
Duration : 55mn 26s
Bit rate : 1 429 Kbps
Width : 720 pixels
Height : 360 pixels
Display aspect ratio : 2.000
Frame rate : 23.976 fps
Color space : YUV
Chroma subsampling : 4:2:0
Bit depth : 8 bits
Scan type : Progressive
Compression mode : Lossy
Bits/(Pixel*Frame) : 0.230
Stream size : 567 MiB (81%)
Writing library : XviD 73

Audio #1
ID : 1
Format : MPEG Audio
Format version : Version 1
Format profile : Layer 3
Mode : Joint stereo
Mode extension : MS Stereo
Codec ID : 55
Codec ID/Hint : MP3
Duration : 55mn 26s
Bit rate mode : Constant
Bit rate : 128 Kbps
Channel(s) : 2 channels
Sampling rate : 48.0 KHz
Compression mode : Lossy
Stream size : 50.8 MiB (7%)
Alignment : Aligned on interleaves

Audio #2
ID : 2
Format : MPEG Audio
Format version : Version 1
Format profile : Layer 3
Mode : Joint stereo
Codec ID : 55
Codec ID/Hint : MP3
Duration : 55mn 26s
Bit rate mode : Constant
Bit rate : 128 Kbps
Channel(s) : 2 channels
Sampling rate : 48.0 KHz
Compression mode : Lossy
Stream size : 50.8 MiB (7%)
Alignment : Aligned on interleaves
Writing library : LAME3.99r
Encoding settings : -m j -V 4 -q 2 -lowpass 17 -b 128
Когда раздача ведётся путём добавления новых серий, при каждом добавлении создётся новый торрент. Чтобы начать докачку новой серии, пользователям необходимо сделать следующее:
(1) остановить скачивание,
(2) удалить старый торрент у себя из клиента (старые серии удалять не надо),
(3) скачать новый торрент и запустить его у себя в клиенте вместо старого, при этом указать клиенту путь в старую папку, куда и должно происходить скачивание новых серий.
Ваш клиент при этом должен произвести хеширование (проверку) старой папки (если не производит сам - помогите ему сделать это), и будет докачивать только те серии, которых у вас ещё нет. Старые серии при этом не удаляются, а продолжают раздаваться!
Eсли вы уже удалили старые серии, то предотвратить повторную закачку старых серий можно, отжав галочку в соответсвующих местах при запуске нового торрента. По возможности, желательно не удалять старые серии как можно дольше, чтобы релизёр не столько продолжал раздавать старые серии, а смог сконцентрироваться на новых.




Скачать Голиаф.Goliath.(Сезон.01).(Лоуренс.Триллинг.Алик.Сахаров.Билл.Д.Элиа).[2016.драма.WEBRip].[MVO].(NewStudio).torrent без регистрации
Золото ЗОЛОТАЯ РАЗДАЧА! СКАЧАННОЕ НЕ ЗАСЧИТЫВАЕТСЯ! Золото
Дата: Зарегистрирован   [ Тип: внутренний ] Как тут cкачать?
MAGNET ссылка
MAGNET ссылка


Скачать .torrent

15 KB

Статус: проверено DHT
Скачан: торрент - 23 раз, раздача полностью - 22 раз
Размер: 5,47 GB
Оценка:  - (Голосов: 0)
Поблагодарили: 2
Поделиться ссылкой на эту раздачу с друзьями:
В контактеFacebookОдноклассникиTwitterLivejournalМой МирLiveinternet
 

 
Показать сообщения:    


Вы не можете начинать темы
Вы не можете отвечать на сообщения
Вы не можете редактировать свои сообщения
Вы не можете удалять свои сообщения
Вы не можете голосовать в опросах
Вы не можете прикреплять файлы к сообщениям
Вы можете скачивать файлы