Loading...
Error

Скачать Ядовитый плющ / Poison Ivy (Лэрри Илайкэнн) [1985, семейный, комедия, мелодрама, VHSRip] [MVO] торрент без регистрации

 
Статистика раздачи
Размер:  886 MB   |    Скачан:  10 раз
Сидов:  1  [  0 KB/s  ]  
 
Автор Сообщение

Marsianka

[] 

Информация о фильме
Название: Ядовитый плющ
Оригинальное название: Poison Ivy / Camp Pinewood
Год выхода: 1985
Жанр: семейный, комедия, мелодрама
Режиссер: Лэрри Илайкэнн
В ролях: Майкл Дж. Фокс, Нэнси МакКеон, Карен Кэй, Адам Болдуин, Роберт Клейн, Джо Райт, Томми Ноуэлл, Мэттью Шугайло, Дерек Гудж, Кэри Гуффи

О фильме:
Снова лето, и дети приезжают отовсюду в лагерь «Сосновый бор» в Клифтоне, штат Мэн. Деннис Бакстер — новый лагерный вожатый, ухаживающий за Рондой, новой медсестрой. Тимми — застенчивый ребёнок, не уверенный в себе, чуть что сразу убегающий. Тоди — ребёнок с лишним весом, который хочет стать профессиональным комиком. Брайен — поэт. Бобби — атлетично сложенный парень. Джерри — хвастливый, легко приспосабливающийся городской мальчик из Филадельфии. Управляет лагерем бесстрашный Большой Эрв.
Молодой и неопытный вожатый учится жить и любить в течение летней лагерной смены. Именно здесь он переживает свою первую любовь (к медсестре) и познает несколько горьких уроков в Цветных Войнах, традиционных для детских лагерей.



Производство: США / Charles Fries Productions, NBC Productions
Продолжительность: 01:36:55
Перевод: профессиональный (многолосый закадровый) [Варус Видео]

Файл
Качество: VHSRip
Формат: AVI
Видео: XviD, 528x400 (4:3), 23.976 fps, 879 kbps, 0.174 bit/pixel
Аудио #1: русский, AC3 2.0, 48 kHz, 192 kbps
Аудио #2: английский, AC3 2.0, 48 kHz, 192 kbps
В первые полторы минуты фильма перевод отсутствует.
Формат : AVI
Формат/Информация : Audio Video Interleave
Размер файла : 886 Мбайт
Продолжительность : 1 ч. 36 м.
Общий поток : 1278 Кбит/сек
Программа кодирования : VirtualDubModRus 1.5.10.2 (build 2542/release)
Библиотека кодирования : VirtualDubMod build 2542/release

Видео
Идентификатор : 0
Формат : MPEG-4 Visual
Профиль формата : Advanced Simple@L5
Параметр BVOP формата : 1
Параметр QPel формата : Нет
Параметр GMC формата : Без точки перехода
Параметр матрицы формата : Выборочная
Идентификатор кодека : XVID
Идентификатор кодека/Подсказка : XviD
Продолжительность : 1 ч. 36 м.
Битрейт : 879 Кбит/сек
Ширина : 528 пикселей
Высота : 400 пикселей
Соотношение сторон : 4:3
Частота кадров : 23,976 кадра/сек
Цветовое пространство : YUV
Субдискретизация насыщенности : 4:2:0
Битовая глубина : 8 бит
Тип развёртки : Прогрессивная
Метод сжатия : С потерями
Бит/(Пиксели*Кадры) : 0.174
Размер потока : 610 Мбайт (69%)
Библиотека кодирования : XviD 1.2.0.dev47 (UTC 2006-11-01)

Аудио #1
Идентификатор : 1
Формат : AC-3
Формат/Информация : Audio Coding 3
Расширение режима : CM (complete main)
Параметр Endianness формата : Big
Идентификатор кодека : 2000
Продолжительность : 1 ч. 36 м.
Вид битрейта : Постоянный
Битрейт : 192 Кбит/сек
Каналы : 2 канала
Расположение каналов : Front: L R
Частота : 48,0 КГц
Метод сжатия : С потерями
Размер потока : 133 Мбайт (15%)
Выравнивание : Разделение по промежуткам
Продолжительность промежутка : 42 мс. (1,00 видеокадр)
Время предзагрузки промежутка : 500 мс.

Аудио #2
Идентификатор : 2
Формат : AC-3
Формат/Информация : Audio Coding 3
Расширение режима : CM (complete main)
Параметр Endianness формата : Big
Идентификатор кодека : 2000
Продолжительность : 1 ч. 36 м.
Вид битрейта : Постоянный
Битрейт : 192 Кбит/сек
Каналы : 2 канала
Расположение каналов : Front: L R
Частота : 48,0 КГц
Метод сжатия : С потерями
Размер потока : 133 Мбайт (15%)
Выравнивание : Разделение по промежуткам
Продолжительность промежутка : 42 мс. (1,00 видеокадр)
Время предзагрузки промежутка : 500 мс.



Скачать Ядовитый.плющ.Poison.Ivy.(Лэрри.Илайкэнн).[1985.семейный.комедия.мелодрама.VHSRip].[MVO].torrent без регистрации
Золото ЗОЛОТАЯ РАЗДАЧА! СКАЧАННОЕ НЕ ЗАСЧИТЫВАЕТСЯ! Золото
Дата: Зарегистрирован   [ Тип: внутренний ] Как тут cкачать?
MAGNET ссылка
MAGNET ссылка


Скачать .torrent

18 KB

Статус: проверено DHT
Скачан: торрент - 10 раз, раздача полностью - 2 раз
Размер: 886 MB
Оценка:  - (Голосов: 0)
Поблагодарили: 0
Поделиться ссылкой на эту раздачу с друзьями:
В контактеFacebookОдноклассникиTwitterLivejournalМой МирLiveinternet
 

 
Показать сообщения:    


Вы не можете начинать темы
Вы не можете отвечать на сообщения
Вы не можете редактировать свои сообщения
Вы не можете удалять свои сообщения
Вы не можете голосовать в опросах
Вы не можете прикреплять файлы к сообщениям
Вы можете скачивать файлы