Loading...
Error

Скачать Люцифер / Lucifer (02x01-10 из 13) (Нэйтан Хоуп и др.) [2016, фэнтези, драма, WEB-DLRip] [MVO (Jaskier)]+[Eng] торрент без регистрации

 
Статистика раздачи
Размер:  3,72 GB   |    Скачан:  7 раз
Сидов:  8  [  0 KB/s  ]   Личеров:  23  [  0 KB/s  ]  
 
Автор Сообщение

МихаНЕзатор

[] 


Люцифер / Lucifer

Год выпуска: 2016
Страна США
Жанр:фэнтези, драма, криминал
Продолжительность: ~ 00:45:00
Перевод:Профессиональный многоголосый закадровый(Jaskier)
Субтитры: нет
Режиссер: Нэйтан Хоуп, Грег Биман, Майрзи Алмас

В ролях :Рэйчел Харрис, Лорен Джерман, Кайла Юэлл, Кевин Алехандро, Лесли-Энн Брандт, Д.Б. Вудсайд, Том Эллис, Мэтт Корбой, Скарлет Эстевез

Описание: Люцифер, эксцентричный Король демонов, заскучал на своем троне и решил посетить Лос-Анджелес, после чего он становится консультантом по расследованию убийств при местном полицейском управлении


Без рекламы в видеоряде и звуковой дорожке
Качество:WEB-DLRip
Формат: AVI
Видео кодек: XviD
Аудио кодеk: MP3
Видео: 656x368 (1.79:1), 23.976 fps, XviD build 73 ~1074 kbps avg, 0.21 bit/pixel
Аудио: 48 kHz, MP3, 2/0 (L,R) ch, ~128.00 kbps avg (RUS) Jaskier

АНОНСЫ ПОПУЛЯРНЫХ РАЗДАЧ


Торрент обновлён, добавлена 10-я серия!

Общее
Полное имя : H:Lucifer S02�1.avi
Формат : AVI
Формат/Информация : Audio Video Interleave
Размер файла : 381 Мбайт
Продолжительность : 43 м. 55 с.
Режим общего битрейта : Переменный
Общий поток : 1211 Кбит/сек
Программа кодирования : VirtualDubMod 1.5.10.3 | www.virtualdub-fr.org || (build 2550/release)
Библиотека кодирования : VirtualDubMod build 2550/release

Видео
Идентификатор : 0
Формат : MPEG-4 Visual
Профиль формата : Advanced Simple@L5
Параметр BVOP формата : 1
Параметр QPel формата : Нет
Параметр GMC формата : Без точки перехода
Параметр матрицы формата : Выборочная
Идентификатор кодека : DIVX
Идентификатор кодека/Информация : Project Mayo
Идентификатор кодека/Подсказка : DivX 4
Продолжительность : 43 м. 55 с.
Битрейт : 1074 Кбит/сек
Ширина : 656 пикселей
Высота : 368 пикселей
Соотношение сторон : 16:9
Частота кадров : 23,976 (24000/1001) кадра/сек
Цветовое пространство : YUV
Субдискретизация насыщенности : 4:2:0
Битовая глубина : 8 бит
Тип развёртки : Прогрессивная
Метод сжатия : С потерями
Бит/(Пиксели*Кадры) : 0.186
Размер потока : 337 Мбайт (89%)
Библиотека кодирования : XviD 73

Аудио
Идентификатор : 1
Формат : MPEG Audio
Версия формата : Version 1
Профиль формата : Layer 3
Режим : Joint stereo
Расширение режима : MS Stereo
Идентификатор кодека : 55
Идентификатор кодека/Подсказка : MP3
Продолжительность : 43 м. 55 с.
Вид битрейта : Переменный
Битрейт : 128 Кбит/сек
Каналы : 2 канала
Частота : 48,0 КГц
Метод сжатия : С потерями
Размер потока : 40,2 Мбайт (11%)
Выравнивание : Разделение по промежуткам
Продолжительность промежутка : 42 мс. (1,00 видеокадр)
Время предзагрузки промежутка : 500 мс.



Скачать Люцифер.Lucifer.(02x01-10.из.13).(Нэйтан.Хоуп.и.др.).[2016.фэнтези.драма.WEB-DLRip].[MVO.(Jaskier)]+[Eng].torrent без регистрации
Золото ЗОЛОТАЯ РАЗДАЧА! СКАЧАННОЕ НЕ ЗАСЧИТЫВАЕТСЯ! Золото
Дата: Зарегистрирован   [ Тип: внешний ] Как тут cкачать?
MAGNET ссылка
MAGNET ссылка


Скачать .torrent

150 KB

Статус: проверено DHT
Скачан: торрент - 7 раз, раздача полностью - 0 раз
Размер: 3,72 GB
Оценка:  - (Голосов: 0)
Поблагодарили: 0
Поделиться ссылкой на эту раздачу с друзьями:
В контактеFacebookОдноклассникиTwitterLivejournalМой МирLiveinternet
 

 
Показать сообщения:    


Вы не можете начинать темы
Вы не можете отвечать на сообщения
Вы не можете редактировать свои сообщения
Вы не можете удалять свои сообщения
Вы не можете голосовать в опросах
Вы не можете прикреплять файлы к сообщениям
Вы можете скачивать файлы