Loading...
Error

Скачать Плохие / Misfits (сезон 05) (Том Грин и др.) [2013, фантастика, фэнтези, драма, комедия, BDRip] [720р] [DVO (Кубик в Кубе)]+[Eng]+[Sub Eng, Ita] торрент без регистрации

 
Статистика раздачи
Размер:  18,45 GB   |    Скачан:  2 раза
Сидов:  1  [  0 KB/s  ]   Личеров:  1  [  0 KB/s  ]  
 
Автор Сообщение

МихаНЕзатор

[] 

Название: Плохие
Оригинальное название: Misfits
Год выхода: 2013
Жанр: фантастика, фэнтези, драма, комедия
Режиссер: Том Грин, Джонатан ван Тюллекен, Том Харпер, ...

В ролях: Джозеф Гилган, Шон Дули, Карла Кром, Нэйтан МакМаллен, Мэтт Стокоу, Наташа О’Кифф, Майкл Уиндер, Мэттью Кросс, Рут Шин, Элли Кендрик, Кейт Брекен, ...

О фильме: Группа молодых людей выполняют общественные работы за совершение мелких преступлений. Они — не друзья. Более того, у них нет ничего общего. В группе постоянно происходят конфликты, споры и драки. Но в удивительный день во время сильного шторма сильная молния делает из них супергероев и наделяет их сверхвозможностями. Они понятия не имеют, что делать с этими сверхвозможностями. Более того, никто из них не рад своей новой силе, потому что она раскрывает их самые глубокие комплексы и тайны, которые бы они не хотели выставлять напоказ…



Страна: Великобритания
Студия: Clerkenwell Films
Продолжительность: 8 x ~ 46:00
Перевод: Профессиональный (двухголосый, закадровый) Кубик в Кубе
Субтитры: Английские, Итальянские

Кодек: x264
Качество: BDRip 720p
Видео: 1280x720, ~5200 kbps, 25 fps
Аудио #1: AC-3, 2 ch, 192 kbps (Rus) - Кубик в Кубе
Аудио #2: DTS, 2 ch, 1509 kbps (Eng)
Аудио #3: AC-3, 2 ch, 192 kbps (Ita) - Dub

АНОНСЫ ПОПУЛЯРНЫХ РАЗДАЧ
Общее
Уникальный идентификатор : 223463847259096628525947698168694722216 (0xA81D924D53E3C37C84ACD515DBEA4EA8)
Полное имя : Misfits E01 S05 2013 BDRip 720p Кубик в Кубе.mkv
Формат : Matroska
Версия формата : Version 2
Размер файла : 2,31 Гбайт
Продолжительность : 45 м.
Общий поток : 7234 Кбит/сек
Дата кодирования : UTC 2016-11-16 18:51:23
Программа кодирования : mkvmerge v4.0.0 ('The Stars were mine') сборка от Jun 6 2010 16:18:42
Библиотека кодирования : libebml v1.0.0 + libmatroska v1.0.0

Видео
Идентификатор : 1
Формат : AVC
Формат/Информация : Advanced Video Codec
Профиль формата : High@L4.1
Параметр CABAC формата : Да
Параметр ReFrames формата : 5 кадров
Идентификатор кодека : V_MPEG4/ISO/AVC
Продолжительность : 45 м.
Битрейт : 5340 Кбит/сек
Ширина : 1280 пикселей
Высота : 720 пикселей
Соотношение сторон : 16:9
Режим частоты кадров : Постоянный
Частота кадров : 25,000 кадров/сек
Цветовое пространство : YUV
Субдискретизация насыщенности : 4:2:0
Битовая глубина : 8 бит
Тип развёртки : Прогрессивная
Бит/(Пиксели*Кадры) : 0.232
Размер потока : 1,66 Гбайт (72%)
Библиотека кодирования : x264 core 140 r2377 1ca7bb9
Настройки программы : cabac=1 / ref=5 / deblock=1:-2:-2 / analyse=0x3:0x113 / me=umh / subme=8 / psy=1 / psy_rd=1.00:0.00 / mixed_ref=1 / me_range=16 / chroma_me=1 / trellis=1 / 8x8dct=1 / cqm=0 / deadzone=21,11 / fast_pskip=1 / chroma_qp_offset=-2 / threads=12 / lookahead_threads=2 / sliced_threads=0 / nr=0 / decimate=1 / interlaced=0 / bluray_compat=0 / constrained_intra=0 / bframes=3 / b_pyramid=2 / b_adapt=2 / b_bias=0 / direct=3 / weightb=1 / open_gop=0 / weightp=2 / keyint=250 / keyint_min=25 / scenecut=40 / intra_refresh=0 / rc_lookahead=50 / rc=2pass / mbtree=1 / bitrate=5340 / ratetol=1.0 / qcomp=0.60 / qpmin=0 / qpmax=69 / qpstep=4 / cplxblur=20.0 / qblur=0.5 / ip_ratio=1.40 / aq=1:1.00
Язык : English
Default : Нет
Forced : Нет

Аудио #1
Идентификатор : 2
Формат : AC-3
Формат/Информация : Audio Coding 3
Расширение режима : CM (complete main)
Параметр Endianness формата : Big
Идентификатор кодека : A_AC3
Продолжительность : 45 м.
Вид битрейта : Постоянный
Битрейт : 192 Кбит/сек
Каналы : 2 канала
Расположение каналов : Front: L R
Частота : 48,0 КГц
Частота кадров : 31,250 кадров/сек (1536 spf)
Метод сжатия : С потерями
Размер потока : 62,6 Мбайт (3%)
Заголовок : Кубик в Кубе
Язык : Russian
Default : Нет
Forced : Нет

Аудио #2
Идентификатор : 3
Формат : DTS
Формат/Информация : Digital Theater Systems
Режим : 16
Параметр Endianness формата : Big
Идентификатор кодека : A_DTS
Продолжительность : 45 м.
Вид битрейта : Постоянный
Битрейт : 1509 Кбит/сек
Каналы : 2 канала
Расположение каналов : Front: L R
Частота : 48,0 КГц
Частота кадров : 93,750 кадра/сек (512 spf)
Битовая глубина : 24 бит
Метод сжатия : С потерями
Задержка видео : 11 мс.
Размер потока : 492 Мбайт (21%)
Язык : English
Default : Нет
Forced : Нет

Аудио #3
Идентификатор : 4
Формат : AC-3
Формат/Информация : Audio Coding 3
Расширение режима : CM (complete main)
Параметр Endianness формата : Big
Идентификатор кодека : A_AC3
Продолжительность : 45 м.
Вид битрейта : Постоянный
Битрейт : 192 Кбит/сек
Каналы : 2 канала
Расположение каналов : Front: L R
Частота : 48,0 КГц
Частота кадров : 31,250 кадров/сек (1536 spf)
Метод сжатия : С потерями
Размер потока : 62,6 Мбайт (3%)
Заголовок : Dub
Язык : Italian
Default : Нет
Forced : Нет

Текст #1
Идентификатор : 5
Формат : UTF-8
Идентификатор кодека : S_TEXT/UTF8
Идентификатор кодека/Информация : UTF-8 Plain Text
Язык : English
Default : Нет
Forced : Нет

Текст #2
Идентификатор : 6
Формат : UTF-8
Идентификатор кодека : S_TEXT/UTF8
Идентификатор кодека/Информация : UTF-8 Plain Text
Язык : Italian
Default : Нет
Forced : Нет



Скачать Плохие.Misfits.(сезон.05).(Том.Грин.и.др.).[2013.фантастика.фэнтези.драма.комедия.BDRip].[720р].[DVO.(Кубик.в.Кубе)]+[Eng]+[Sub.Eng.Ita].torrent без регистрации
Золото ЗОЛОТАЯ РАЗДАЧА! СКАЧАННОЕ НЕ ЗАСЧИТЫВАЕТСЯ! Золото
Дата: Зарегистрирован   [ Тип: внутренний ] Как тут cкачать?
MAGNET ссылка
MAGNET ссылка


Скачать .torrent

94 KB

Статус: проверено DHT
Скачан: торрент - 2 раз, раздача полностью - 1 раз
Размер: 18,45 GB
Оценка:  - (Голосов: 0)
Поблагодарили: 0
Поделиться ссылкой на эту раздачу с друзьями:
В контактеFacebookОдноклассникиTwitterLivejournalМой МирLiveinternet
 

 
Показать сообщения:    


Вы не можете начинать темы
Вы не можете отвечать на сообщения
Вы не можете редактировать свои сообщения
Вы не можете удалять свои сообщения
Вы не можете голосовать в опросах
Вы не можете прикреплять файлы к сообщениям
Вы можете скачивать файлы