Loading...
Error

Скачать Придорожное заведение / Red Rock West (Джон Дал) [1993, триллер, драма, криминал, HDRip-AVC] [MVO]x3+[DVO]+[AVO]x2+[ENG]+[Sub]x3 торрент без регистрации

 
Статистика раздачи
Размер:  2,19 GB   |    Скачан:  4 раза
Сидов:  1  [  0 KB/s  ]  
 
Автор Сообщение

Marsianka

[] 

Информация о фильме
Год выхода: 1993
Жанр: триллер, драма, криминал
Режиссер: Джон Дал
В ролях: Николас Кейдж, Деннис Хоппер, Дж.Т. Уолш, Лара Флинн Бойл, Тимоти Кархарт, Дэн Шор, Дуайт Йоакам, Крэйг Рей, Вэнс Джонсон, Роберт Эпел

О фильме:
Майкл — бывший морской пехотинец. В его карманах пусто, а единственный шанс найти работу — заехать в придорожный бар Red rock west. В это самое утро местный шериф Уэйн, на самом деле беглый преступник, укравший вместе с женой Сьюзан полмиллиона долларов и разыскиваемый ФБР, поджидает прибытия наемного убийцы из Техаса, нанятого для устранения жены.

Увидев Техасские номера машины Майкла, Уэйн решает, что дождался киллера и вручает Майклу $ 5000 аванса за предстоящую работу. Майкл устремляется к Сьюзан, чтобы предупредить ее и скрыться с наличными. Но к его удивлению Сьюзан удваивает сумму, чтобы он убил Уэйна. Майкл соглашается, но чувствует, что пора смываться. А тем временем к городку подъезжает настоящий наемный убийца Лайл…



Страна: США
Студия: PolyGram Filmed Entertainment, Propaganda Films, Red Rock Films
Продолжительность: 01:38:39
Перевод: Профессиональный (многоголосый, закадровый) Пифагор + Профессиональный (многоголосый, закадровый) Варус Видео + Профессиональный (двухголосый, закадровый) НТВ+ + Авторский (одноголосый, закадровый) Ю.Живов + Авторский (одноголосый, закадровый) С.Кузнецов + Профессиональный (многоголосый, закадровый) Новый канал
Файл
Формат: Matroska
Качество: HDRip-AVC
Видео: 1024x576 at 23.976 fps, x264@L4.1, ~1820 kbps
Аудио#1: Russian: 48 kHz, AC3, 2/0 (L,R) ch, ~192 kbps |Многоголосый закадровый, Пифагор|
Аудио#2: Russian: 48 kHz, AC3, 2/0 (L,R) ch, ~192 kbps |Многоголосый закадровый, Варус Видео|
Аудио#3: Russian: 48 kHz, AC3, 2/0 (L,R) ch, ~192 kbps |Двухголосый закадровый, НТВ+|
Аудио#4: Russian: 48 kHz, AC3, 2/0 (L,R) ch, ~192 kbps |Авторский, Ю.Живов|
Аудио#5: Russian: 48 kHz, AC3, 2/0 (L,R) ch, ~192 kbps avg |Авторский, С.Кузнецов|
Аудио#6: Ukrainian: 48 kHz, AC3, 2/0 (L,R) ch, ~192 kbps avg |Многоголосый закадровый, Новый канал|
Аудио#7: English: 48 kHz, AC3, 2/0 (L,R) ch, ~192 kbps
Субтитры: Russian, Ukrainian (Forced), English
***Сохранены оригинальные чаптеры как на Blu-ray.
***Дорожка #4 получена путем наложения чистого голоса на L,R каналы оригинального DTS-HD MA.
***За НТВ+ спасибо: maksnew. За дорожку Кузнецова с VHS спасибо: sasikainen.
***За украинскую дорожку спасибо: Hurtom. Не хватает около двух минут перевода, имеются украинские субтитры на данный отрезок.
***В русских субтитрах присутствует ненормативная лексика.
Несмотря на то, что действие фильма разворачивается в Вайоминге, съемки проходили в Монтане и Аризоне. Режиссер и сценарист картины Джон Дал родом из Монтаны.
Джон Дал поначалу хотел, чтобы Уэйна Брауна сыграл Деннис Хоппер, но тот уговорил режиссера дать ему роль Лайла из Далласа.
Николас Кейдж получил главную роль во многом благодаря рекомендации его дяди, Френсиса Форда Копполы, которому очень понравился дебютный фильма Дала «Убей меня снова» (1989).
Дуайт Йокем, сыгравший водителя грузовика, пользовался на съемках своим собственным пистолетом.
Когда фильм был впервые показан на публике, ни один из продюсеров не был замечен на показе.
General
Unique ID : 173627965027366189726014928371874736626 (0x829F879A9C586E6D70784352666329F2)
Complete name : F:FILMSПридорожное заведение.(1993)_P, P2, A_HDRIP_AVC.[-=DoMiNo=-].mkv
Format : Matroska
Format version : Version 4 / Version 2
File size : 2.19 GiB
Duration : 1 h 38 min
Overall bit rate : 3 177 kb/s
Movie name : Придорожное заведение
Deion : Майкл — бывший морской пехотинец. В его карманах пусто, а единственный шанс найти работу — заехать в придорожный бар Red rock west. В это самое утро местный шериф Уэйн, на самом деле беглый преступник, укравший вместе с женой Сьюзан полмиллиона долларов и разыскиваемый ФБР, поджидает прибытия наемного убийцы из Техаса, нанятого для устранения жены.Увидев Техасские номера машины Майкла, Уэйн решает, что дождался киллера и вручает Майклу $ 5000 аванса за предстоящую работу. Майкл устремляется к Сьюзан, чтобы предупредить ее и скрыться с наличными. Но к его удивлению Сьюзан удваивает сумму, чтобы он убил Уэйна. Майкл соглашается, но чувствует, что пора смываться. А тем временем к городку подъезжает настоящий наемный убийца Лайл…
Writing application : XviD4PSP 7.0.324 DAILY
Writing library : Lavf57.41.100 / Lavf57.41.100
Attachments : poster.jpg
ACTORS : Николас Кейдж, Деннис Хоппер, Дж.Т. Уолш, Лара Флинн Бойл, Тимоти Кархарт, Дэн Шор, Дуайт Йоакам, Крэйг Рей, Вэнс Джонсон, Роберт Эпел, Бобби Джо МакФедден, Дэйл Гибсон, Тед Паркс, Бабс Брэм, Роберт Гваджардо, Сара Салливан, Майкл Рууд, Питер Кевин Куинн, Джефф Ливайн, Шоун Майкл Райан, Барбара Гловер, Роберт Бичер, Джоди Картер
COMPOSER : Уильям Олвис
COUNTRY : США
DATE : 1992
DIRECTOR : Джон Дал
ENCODING_INFO : MATROSKA,WEBM > MKV / H264 > X264 VBR-2P 1820kbps Произвольный / AC3 > COPY / AC3 > COPY / AC3 > COPY / FLAC > AC3 CBR 192kbps / AC3 > COPY / AC3 > COPY / FLAC > AC3 CBR 192kbps
GENRE : триллер, драма, криминал
HD_VIDEO : 1
IMDB_RATING : 7.00
ITUNEXTC : mpaa|R|400|
MEDIA_TYPE : 9
ORIGINAL_ACTORS : Nicolas Cage, Dennis Hopper, J.T. Walsh, Lara Flynn Boyle, Timothy Carhart, Dan Shor, Dwight Yoakam, Craig Reay, Vance Johnson, Robert Apel, Bobby Joe McFadden, Dale Gibson, Ted Parks, Babs Bram, Robert Guajardo, Sarah Sullivan, Michael Ruud, Peter Kevin Quinn, Jeff Levine, Shawn Michael Ryan, Barbara Glover, Robert Beecher, Jody Carter
ORIGINAL_TITLE : Red Rock West
PRODUCER : Стив Голин, Сигуржон Сигватссон, Рик Дал, Майкл Кун, Джейн МакГэнн, Арон Уорнер, Линн Веймер
RATING : 7.142
WRITER : Джон Дал, Рик Дал

Video
ID : 1
Format : AVC
Format/Info : Advanced Video Codec
Format profile : High@L4.1
Format settings, CABAC : Yes
Format settings, ReFrames : 10 frames
Codec ID : V_MPEG4/ISO/AVC
Bit rate : 1 820 kb/s
Width : 1 024 pixels
Height : 576 pixels
Display aspect ratio : 16:9
Frame rate mode : Variable
Original frame rate : 23.976 FPS
Color space : YUV
Chroma subsampling : 4:2:0
Bit depth : 8 bits
Scan type : Progressive
Bits/(Pixel*Frame) : 0.129
Title : RIP_by_-=DoMiNo=-
Writing library : x264 core 148 r2721M 72d53ab
Encoding settings : cabac=1 / ref=10 / deblock=1:-3:-3 / analyse=0x3:0x133 / me=umh / subme=11 / psy=1 / psy_rd=1.00:0.10 / mixed_ref=1 / me_range=32 / chroma_me=1 / trellis=2 / 8x8dct=1 / cqm=0 / deadzone=21,11 / fast_pskip=0 / chroma_qp_offset=-3 / threads=5 / lookahead_threads=1 / sliced_threads=0 / nr=0 / decimate=1 / interlaced=0 / bluray_compat=0 / constrained_intra=0 / bframes=12 / b_pyramid=2 / b_adapt=2 / b_bias=0 / direct=3 / weightb=1 / open_gop=0 / weightp=2 / keyint=230 / keyint_min=23 / scenecut=40 / intra_refresh=0 / rc=2pass / mbtree=0 / bitrate=1820 / ratetol=1.0 / qcomp=0.70 / qpmin=0 / qpmax=69 / qpstep=4 / cplxblur=20.0 / qblur=0.5 / ip_ratio=1.40 / pb_ratio=1.30 / aq=1:1.00
Language : English
Default : Yes
Forced : No
Color range : Limited
Color primaries : BT.709
Transfer characteristics : BT.709
Matrix coefficients : BT.709
DURATION : 01:38:39.460000000

Audio #1
ID : 2
Format : AC-3
Format/Info : Audio Coding 3
Mode extension : CM (complete main)
Format settings, Endianness : Big
Codec ID : A_AC3
Duration : 1 h 38 min
Bit rate mode : Constant
Bit rate : 192 kb/s
Channel(s) : 2 channels
Channel positions : Front: L R
Sampling rate : 48.0 kHz
Frame rate : 31.250 FPS (1536 spf)
Bit depth : 16 bits
Compression mode : Lossy
Delay relative to video : 5 ms
Stream size : 135 MiB (6%)
Title : Многоголосый закадровый, Пифагор
Language : Russian
Default : Yes
Forced : No
DURATION : 01:38:39.525000000

Audio #2
ID : 3
Format : AC-3
Format/Info : Audio Coding 3
Mode extension : CM (complete main)
Format settings, Endianness : Big
Codec ID : A_AC3
Duration : 1 h 38 min
Bit rate mode : Constant
Bit rate : 192 kb/s
Channel(s) : 2 channels
Channel positions : Front: L R
Sampling rate : 48.0 kHz
Frame rate : 31.250 FPS (1536 spf)
Bit depth : 16 bits
Compression mode : Lossy
Delay relative to video : 5 ms
Stream size : 135 MiB (6%)
Title : Многоголосый закадровый, Варус Видео
Language : Russian
Default : No
Forced : No
DURATION : 01:38:39.525000000

Audio #3
ID : 4
Format : AC-3
Format/Info : Audio Coding 3
Mode extension : CM (complete main)
Format settings, Endianness : Big
Codec ID : A_AC3
Duration : 1 h 38 min
Bit rate mode : Constant
Bit rate : 192 kb/s
Channel(s) : 2 channels
Channel positions : Front: L R
Sampling rate : 48.0 kHz
Frame rate : 31.250 FPS (1536 spf)
Bit depth : 16 bits
Compression mode : Lossy
Delay relative to video : 5 ms
Stream size : 135 MiB (6%)
Title : Двухголосый закадровый, НТВ+
Language : Russian
Default : No
Forced : No
DURATION : 01:38:39.525000000

Audio #4
ID : 5
Format : AC-3
Format/Info : Audio Coding 3
Mode extension : CM (complete main)
Format settings, Endianness : Big
Codec ID : A_AC3
Duration : 1 h 38 min
Bit rate mode : Constant
Bit rate : 192 kb/s
Channel(s) : 2 channels
Channel positions : Front: L R
Sampling rate : 48.0 kHz
Frame rate : 31.250 FPS (1536 spf)
Bit depth : 16 bits
Compression mode : Lossy
Stream size : 135 MiB (6%)
Title : Одноголосый закадровый, Ю.Живов
Language : Russian
Default : No
Forced : No
DURATION : 01:38:39.520000000

Audio #5
ID : 6
Format : AC-3
Format/Info : Audio Coding 3
Mode extension : CM (complete main)
Format settings, Endianness : Big
Codec ID : A_AC3
Duration : 1 h 38 min
Bit rate mode : Constant
Bit rate : 192 kb/s
Channel(s) : 2 channels
Channel positions : Front: L R
Sampling rate : 48.0 kHz
Frame rate : 31.250 FPS (1536 spf)
Bit depth : 16 bits
Compression mode : Lossy
Delay relative to video : 5 ms
Stream size : 135 MiB (6%)
Title : Одноголосый закадровый, С.Кузнецов
Language : Russian
Default : No
Forced : No
DURATION : 01:38:39.525000000

Audio #6
ID : 7
Format : AC-3
Format/Info : Audio Coding 3
Mode extension : CM (complete main)
Format settings, Endianness : Big
Codec ID : A_AC3
Duration : 1 h 38 min
Bit rate mode : Constant
Bit rate : 192 kb/s
Channel(s) : 2 channels
Channel positions : Front: L R
Sampling rate : 48.0 kHz
Frame rate : 31.250 FPS (1536 spf)
Bit depth : 16 bits
Compression mode : Lossy
Delay relative to video : 5 ms
Stream size : 135 MiB (6%)
Title : Многоголосый закадровый, Новый канал
Language : Ukrainian
Default : No
Forced : No
DURATION : 01:38:39.525000000

Audio #7
ID : 8
Format : AC-3
Format/Info : Audio Coding 3
Mode extension : CM (complete main)
Format settings, Endianness : Big
Codec ID : A_AC3
Duration : 1 h 38 min
Bit rate mode : Constant
Bit rate : 192 kb/s
Channel(s) : 2 channels
Channel positions : Front: L R
Sampling rate : 48.0 kHz
Frame rate : 31.250 FPS (1536 spf)
Bit depth : 16 bits
Compression mode : Lossy
Stream size : 135 MiB (6%)
Title : ENG
Language : English
Default : No
Forced : No
DURATION : 01:38:39.520000000

Text #1
ID : 9
Format : UTF-8
Codec ID : S_TEXT/UTF8
Codec ID/Info : UTF-8 Plain Text
Title : Russian
Language : Russian
Default : Yes
Forced : No
DURATION : 01:33:59.423000000

Text #2
ID : 10
Format : UTF-8
Codec ID : S_TEXT/UTF8
Codec ID/Info : UTF-8 Plain Text
Title : Ukrainian (Forced)
Language : Ukrainian
Default : No
Forced : No
DURATION : 01:18:47.995000000

Text #3
ID : 11
Format : UTF-8
Codec ID : S_TEXT/UTF8
Codec ID/Info : UTF-8 Plain Text
Title : ENG
Language : English
Default : No
Forced : No
DURATION : 01:33:59.565000000

Menu
00:00:00.000 : :00:00:00.000
00:09:10.548 : :00:09:10.548
00:15:48.364 : :00:15:48.364
00:24:41.980 : :00:24:41.980
00:33:30.090 : :00:33:30.090
00:41:34.157 : :00:41:34.157
00:50:32.195 : :00:50:32.195
00:58:20.121 : :00:58:20.121
01:07:46.103 : :01:07:46.103
01:17:47.537 : :01:17:47.537
01:26:14.793 : :01:26:14.793
01:34:31.623 : :01:34:31.623





Скачать Придорожное.заведение.Red.Rock.West.(Джон.Дал).[1993.триллер.драма.криминал.HDRip-AVC].[MVO]x3+[DVO]+[AVO]x2+[ENG]+[Sub]x3.torrent без регистрации
Золото ЗОЛОТАЯ РАЗДАЧА! СКАЧАННОЕ НЕ ЗАСЧИТЫВАЕТСЯ! Золото
Дата: Зарегистрирован   [ Тип: внутренний ] Как тут cкачать?
MAGNET ссылка
MAGNET ссылка


Скачать .torrent

12 KB

Статус: проверено DHT
Скачан: торрент - 4 раз, раздача полностью - 11 раз
Размер: 2,19 GB
Оценка:  - (Голосов: 0)
Поблагодарили: 1
Поделиться ссылкой на эту раздачу с друзьями:
В контактеFacebookОдноклассникиTwitterLivejournalМой МирLiveinternet
 

 
Показать сообщения:    


Вы не можете начинать темы
Вы не можете отвечать на сообщения
Вы не можете редактировать свои сообщения
Вы не можете удалять свои сообщения
Вы не можете голосовать в опросах
Вы не можете прикреплять файлы к сообщениям
Вы можете скачивать файлы