Loading...
Error

Скачать Страх / Angst (Геральд Каргль) [1983, ужасы, драма, криминал, BDRip] [AVO (Алексей Лыдин)]+[Sub]x2 торрент без регистрации

 
Статистика раздачи
Размер:  1,46 GB   |    Скачан:  1 раз
Сидов:  1  [  0 KB/s  ]  
 
Автор Сообщение

Marsianka

[] 

Информация о фильме
Название: Страх
Оригинальное название: Angst
Год выхода: 1983
Жанр: ужасы, драма, криминал
Режиссер: Геральд Каргль
В ролях: Эрвин Ледер, Роберт Хунгер-Бюлер, Сильвия Рабенрейтер, Карин Спрингер, Эдит Россет, Жозефина Лаката, Рудольф Готц, Ренате Кастелик, Хэрман Гройссенбергер, Клаудия Шинко

О фильме:
В основу сценария положено реальное дело серийного убийцы Вернера Книзека, а внутренний монолог героя построен на цитатах из признаний другого маньяка, Петера Кюртена, известного так же как "Вампир из Дюссельдорфа".



Страна: Австрия
Студия: Gerald Kargl
Продолжительность: 01:18:52
Перевод: Авторский (одноголосый закадровый) Алексей Лыдин

Файл
Кодек: XviD
Качество: BDRip
Видео: XviD, 704x400, 2246 Кбит/с, 23.976 кадр/с
Аудио#1: Русский (48 kHz, AC3, 2 ch, 192 Кбит/с)
Аудио#2: Немецкий (48 kHz, AC3, 1 ch, 192 Кбит/с)
Субтитры: Русские, английские
- Саундтрек, написанный одним из пионеров электронной музыки Клаусом Шульце, едва ли не более знаменит, чем сам фильм.

- Помимо необычных ракурсов и полетов камеры, в картине активно используется прием SnorriCam ("как в клипе с Миком Джаггером").

- Оператором, монтажером и соавтором сценария выступил знаменитый мультипликатор, обладатель "Оскара", Збигнев Рыбчинский.

- Большими поклонниками фильма являются Гаспар Ноэ и Йорг Буттгерайт.

- В основу сценария положено реальное дело серийного убийцы Вернера Книзека, а внутренний монолог героя построен на цитатах из признаний другого маньяка, Петера Кюртена, известного так же как "Вампир из Дюссельдорфа".
General
Complete name : C:UsersпкDesktopAngst (1983).avi
Format : AVI
Format/Info : Audio Video Interleave
File size : 1.46 GiB
Duration : 1h 18mn
Overall bit rate : 2 646 Kbps
Writing application : VirtualDubMod 1.5.10.3 (build 2550/release)
Writing library : VirtualDubMod build 2550/release

Video
ID : 0
Format : MPEG-4 Visual
Format profile : Advanced Simple@L5
Format settings, BVOP : Yes
Format settings, QPel : No
Format settings, GMC : No warppoints
Format settings, Matrix : Custom
Codec ID : XVID
Codec ID/Hint : XviD
Duration : 1h 18mn
Bit rate : 2 248 Kbps
Width : 704 pixels
Height : 400 pixels
Display aspect ratio : 16:9
Frame rate : 24.000 fps
Color space : YUV
Chroma subsampling : 4:2:0
Bit depth : 8 bits
Scan type : Progressive
Compression mode : Lossy
Bits/(Pixel*Frame) : 0.333
Stream size : 1.24 GiB (85%)
Writing library : XviD 73

Audio #1
ID : 1
Format : AC-3
Format/Info : Audio Coding 3
Mode extension : CM (complete main)
Format settings, Endianness : Big
Codec ID : 2000
Duration : 1h 18mn
Bit rate mode : Constant
Bit rate : 192 Kbps
Channel(s) : 2 channels
Channel positions : Front: L R
Sampling rate : 48.0 KHz
Bit depth : 16 bits
Compression mode : Lossy
Stream size : 108 MiB (7%)
Alignment : Split accross interleaves
Interleave, duration : 42 ms (1.00 video frame)
Interleave, preload duration : 500 ms

Audio #2
ID : 2
Format : AC-3
Format/Info : Audio Coding 3
Mode extension : CM (complete main)
Format settings, Endianness : Big
Codec ID : 2000
Duration : 1h 18mn
Bit rate mode : Constant
Bit rate : 192 Kbps
Channel(s) : 1 channel
Channel positions : Front: C
Sampling rate : 48.0 KHz
Bit depth : 16 bits
Compression mode : Lossy
Stream size : 108 MiB (7%)
Alignment : Split accross interleaves
Interleave, duration : 42 ms (1.00 video frame)
Interleave, preload duration : 500 ms



Скачать Страх.Angst.(Геральд.Каргль).[1983.ужасы.драма.криминал.BDRip].[AVO.(Алексей.Лыдин)]+[Sub]x2.torrent без регистрации
Золото ЗОЛОТАЯ РАЗДАЧА! СКАЧАННОЕ НЕ ЗАСЧИТЫВАЕТСЯ! Золото
Дата: Зарегистрирован   [ Тип: внутренний ] Как тут cкачать?
MAGNET ссылка
MAGNET ссылка


Скачать .torrent

16 KB

Статус: проверено DHT
Скачан: торрент - 1 раз, раздача полностью - 0 раз
Размер: 1,46 GB
Оценка:  - (Голосов: 0)
Поблагодарили: 0
Поделиться ссылкой на эту раздачу с друзьями:
В контактеFacebookОдноклассникиTwitterLivejournalМой МирLiveinternet
 

 
Показать сообщения:    


Вы не можете начинать темы
Вы не можете отвечать на сообщения
Вы не можете редактировать свои сообщения
Вы не можете удалять свои сообщения
Вы не можете голосовать в опросах
Вы не можете прикреплять файлы к сообщениям
Вы можете скачивать файлы