Loading...
Error

Скачать Франкенштейн освобожденный / Roger Corman's Frankenstein Unbound (Роджер Кормен) [1990, ужасы, фантастика, DVDRip-AVC] [DVO]+[Оригинал]+[Sub] торрент без регистрации

 
Статистика раздачи
Размер:  1,37 GB   |    Скачан:  1 раз
Сидов:  1  [  0 KB/s  ]  
 
Автор Сообщение

Marsianka

[] 

Информация о фильме
Название: Франкенштейн освобожденный
Оригинальное название: Roger Corman's Frankenstein Unbound
Год выхода: 1990
Жанр: ужасы, фантастика
Режиссер: Роджер Кормен
В ролях: Джон Хёрт, Рауль Хулиа, Ник Бримбл, Бриджит Фонда, Кэтрин Рэбетт, Джейсон Патрик, Майкл Хатченс, Катрин Кормэн, Уильям Гейджер, Микки Нокс и др.

О фильме:
2031 год, Лос-Анджелес. Безумный ученый по имени Джо Дьюкеннен, работающий над созданием супер-оружия, совершает путешествие в прошлое и попадает в швейцарский городок начала девятнадцатого века. В местом пабе Бьюкенен знакомится с печально известным изобретателем, доктор Виктором Франкенштейном.

Вскоре после этой невероятной встречи, гостя из будущего ждет новое потрясающее знакомство: Бьюкенен наносит визит находящемуся в ссылке лорду Байрону, поэту Перси Шелли и Мэри Гудвин. Восторг Джо от поразительных встреч с великими людьми прошлого омрачается, жутким монстром Франкенштейна, который бродит по окрестностям, убивает невинных людей и требует от своего создателя сделать ему невесту.



Страна: США
Продолжительность: 01:25:12
Перевод: Профессиональный (двухголосый закадровый)

Файл
Кодек: h.264
Качество: DVDRip-AVC
Видео: MPEG-4, 720x466 @854x466, 23.976 fps ~1850 kbps

1) 48 KHz, AC3, 2 ch ~256 Kbps - DVO [Премьер Видео Фильм]
2) 48 KHz, AC3, 2 ch ~192 Kbps - Original
Субтитры: английские
General
Unique ID : 213522933874686763690745878183540809561 (0xA0A3056E6DE705289474475E0011DF59)
Format : Matroska
Format version : Version 4 / Version 2
File size : 1.37 GiB
Duration : 1 h 25 min
Overall bit rate : 2 302 kb/s
Movie name : Roger Corman's Frankenstein Unbound (1990)
Encoded date : UTC 2016-11-24 13:58:52 / UTC
Writing application : mkvmerge v9.5.0 ('Quiet Fire') 64bit
Writing library : libebml v1.3.4 + libmatroska v1.4.5 / Lavf55.12.0
Cover : Yes
Attachments : Cover.jpg

Video
ID : 1
Format : AVC
Format/Info : Advanced Video Codec
Format profile : High@L4.1
Format settings, CABAC : Yes
Format settings, ReFrames : 9 frames
Codec ID : V_MPEG4/ISO/AVC
Duration : 1 h 25 min
Bit rate : 1 850 kb/s
Width : 720 pixels
Height : 466 pixels
Display aspect ratio : 1.85:1
Frame rate mode : Constant
Frame rate : 23.976 (24000/1001) FPS
Color space : YUV
Chroma subsampling : 4:2:0
Bit depth : 8 bits
Scan type : Progressive
Bits/(Pixel*Frame) : 0.230
Stream size : 1.08 GiB (79%)
Title : MPEG-4, 720x466 @854x466, 23.976 fps ~1850 kbps
Writing library : x264 core 142 r2479 dd79a61
Encoding settings : cabac=1 / ref=9 / deblock=1:-3:-3 / analyse=0x3:0x133 / me=umh / subme=11 / psy=1 / psy_rd=1.00:0.10 / mixed_ref=1 / me_range=32 / chroma_me=1 / trellis=2 / 8x8dct=1 / cqm=0 / deadzone=21,11 / fast_pskip=0 / chroma_qp_offset=-3 / threads=6 / lookahead_threads=1 / sliced_threads=0 / nr=0 / decimate=1 / interlaced=0 / bluray_compat=0 / constrained_intra=0 / bframes=16 / b_pyramid=2 / b_adapt=2 / b_bias=0 / direct=3 / weightb=1 / open_gop=0 / weightp=2 / keyint=240 / keyint_min=24 / scenecut=40 / intra_refresh=0 / rc_lookahead=60 / rc=2pass / mbtree=0 / bitrate=1850 / ratetol=1.0 / qcomp=0.60 / qpmin=0 / qpmax=69 / qpstep=4 / cplxblur=20.0 / qblur=0.5 / vbv_maxrate=62500 / vbv_bufsize=78125 / nal_hrd=none / filler=0 / ip_ratio=1.40 / pb_ratio=1.30 / aq=1:1.00
Language : English
Default : Yes
Forced : No
Color range : Limited
Color primaries : BT.601 NTSC
Transfer characteristics : BT.709
Matrix coefficients : BT.601
Statistics Tags Issue : mkvmerge v9.5.0 ('Quiet Fire') 64bit 2016-11-24 13:58:52 / mkvmerge v9.5.0 ('Quiet Fire') 64bit 2016-11-24 13:58:52 / UTC
FromStats_BitRate : 1850154
FromStats_Duration : 01:25:12.608000000
FromStats_FrameCount : 122580
FromStats_StreamSize : 1182389129

Audio #1
ID : 2
Format : AC-3
Format/Info : Audio Coding 3
Mode extension : CM (complete main)
Format settings, Endianness : Big
Codec ID : A_AC3
Duration : 1 h 25 min
Bit rate mode : Constant
Bit rate : 256 kb/s
Channel(s) : 2 channels
Channel positions : Front: L R
Sampling rate : 48.0 kHz
Frame rate : 31.250 FPS (1536 spf)
Compression mode : Lossy
Stream size : 156 MiB (11%)
Title : 48 KHz, AC3, 2 ch ~256 Kbps - DVO [Премьер Видео Фильм]
Language : Russian
Default : Yes
Forced : No
Statistics Tags Issue : mkvmerge v9.5.0 ('Quiet Fire') 64bit 2016-11-24 13:58:52 / mkvmerge v9.5.0 ('Quiet Fire') 64bit 2016-11-24 13:58:52 / UTC
FromStats_BitRate : 256000
FromStats_Duration : 01:25:12.352000000
FromStats_FrameCount : 159761
FromStats_StreamSize : 163595264

Audio #2
ID : 3
Format : AC-3
Format/Info : Audio Coding 3
Format profile : Dolby Digital
Mode extension : CM (complete main)
Format settings, Endianness : Big
Codec ID : A_AC3
Duration : 1 h 25 min
Bit rate mode : Constant
Bit rate : 192 kb/s
Channel(s) : 2 channels
Channel positions : Front: L R
Sampling rate : 48.0 kHz
Frame rate : 31.250 FPS (1536 spf)
Compression mode : Lossy
Stream size : 117 MiB (8%)
Title : 48 KHz, AC3, 2 ch ~192 Kbps - Original
Language : English
Default : No
Forced : No
Statistics Tags Issue : mkvmerge v9.5.0 ('Quiet Fire') 64bit 2016-11-24 13:58:52 / mkvmerge v9.5.0 ('Quiet Fire') 64bit 2016-11-24 13:58:52 / UTC
FromStats_BitRate : 192000
FromStats_Duration : 01:25:12.352000000
FromStats_FrameCount : 159761
FromStats_StreamSize : 122696448

Text
ID : 4
Format : VobSub
Muxing mode : zlib
Codec ID : S_VOBSUB
Codec ID/Info : Picture based subtitle format used on DVDs
Language : English
Default : No
Forced : No
Statistics Tags Issue : mkvmerge v9.5.0 ('Quiet Fire') 64bit 2016-11-24 13:58:52 / mkvmerge v9.5.0 ('Quiet Fire') 64bit 2016-11-24 13:58:52 / UTC
FromStats_BitRate : 1470
FromStats_Duration : 01:19:02.399000000
FromStats_FrameCount : 784
FromStats_StreamSize : 871605

Menu
00:00:00.000 : :Chapter 1
00:02:20.890 : :Chapter 2
00:05:36.252 : :Chapter 3
00:10:43.726 : :Chapter 4
00:17:28.339 : :Chapter 5
00:22:07.910 : :Chapter 6
00:26:36.553 : :Chapter 7
00:31:01.943 : :Chapter 8
00:36:21.471 : :Chapter 9
00:42:24.500 : :Chapter 10
00:50:37.451 : :Chapter 11
00:56:09.115 : :Chapter 12
00:57:17.017 : :Chapter 13
01:03:12.538 : :Chapter 14
01:07:26.626 : :Chapter 15
01:08:10.002 : :Chapter 16



Скачать Франкенштейн.освобожденный.Roger.Corman's.Frankenstein.Unbound.(Роджер.Кормен).[1990.ужасы.фантастика.DVDRip-AVC].[DVO]+[Оригинал]+[Sub].torrent без регистрации
Золото ЗОЛОТАЯ РАЗДАЧА! СКАЧАННОЕ НЕ ЗАСЧИТЫВАЕТСЯ! Золото
Дата: Зарегистрирован   [ Тип: внутренний ] Как тут cкачать?
MAGNET ссылка
MAGNET ссылка


Скачать .torrent

14 KB

Статус: проверено DHT
Скачан: торрент - 1 раз, раздача полностью - 5 раз
Размер: 1,37 GB
Оценка:  - (Голосов: 0)
Поблагодарили: 1
Поделиться ссылкой на эту раздачу с друзьями:
В контактеFacebookОдноклассникиTwitterLivejournalМой МирLiveinternet
 

 
Показать сообщения:    


Вы не можете начинать темы
Вы не можете отвечать на сообщения
Вы не можете редактировать свои сообщения
Вы не можете удалять свои сообщения
Вы не можете голосовать в опросах
Вы не можете прикреплять файлы к сообщениям
Вы можете скачивать файлы