Loading...
Error

Скачать Остров Головорезов / Cutthroat Island (Ренни Харлин) [1995, боевик, мелодрама, приключения, BDRip-AVC] [MVO]x3+[DVO]+[AVO]x2+[Оригинал]+[Sub]x3 торрент без регистрации

 
Статистика раздачи
Размер:  5,55 GB   |    Скачан:  2 раза
Сидов:  1  [  0 KB/s  ]  
 
Автор Сообщение

Marsianka

[] 

Информация о фильме
Название: Остров Головорезов
Оригинальное название: Cutthroat Island
Год выхода: 1995
Жанр: боевик, мелодрама, приключения
Режиссер: Ренни Харлин
В ролях: Джина Дэвис, Мэттью Модайн, Фрэнк Ланджелла, Мори Чайкин, Патрик Мэлахайд, Стэн Шоу, Рекс Линн, Пол Диллон, Кристофер Мастерсон, Джимми Ф. Скэггз, Харрис Юлин, Карл Чейз, Энгус Райт, Кен Бонс, Мэри Пеглер, Мэри Пич, Люсинда Клер, Томас Локйер, Роджер Бут, Джордж Мёрселл, Саймон Атертон, Дики Бир, Кристофер Холлидэй, Крис Джонстон, Ричард Лиф, Там Уайт, Шайна Манки, Руперт Ванситтарт, Ник Бартлетт

О фильме:
Отважная дочь пирата Морган Эдамс жаждет отомстить за своего отца, погибшего от рук собственного брата. Ей досталась в наследство треть карты Острова Головорезов с обозначением места, где спрятаны несметные сокровища. Чтобы добраться до них, Морган набирает команду из старых боевых товарищей отца.На аукционе рабов в Порт-Ройале на Ямайке она покупает авантюриста и проходимца Уильяма Шоу, у которого оказывается вторая часть карты. Но главная проблема том, что последняя часть карты находится у злого и коварного дяди Морган — пирата по прозвищу «Дог»…



Страна: Германия, США, Франция, Италия
Студия: Beckner/Gorman Productions, Canal+ [fr], Carolco Pictures Inc
Продолжительность: 02:04:32
Перевод: Профессиональный (многоголосый закадровый) + профессиональный (двухголосый закадровый) (П. Гланц, И. Королева) + авторский (одноголосый) (А. Гаврилов), (Ю. Живов) + украинский + оригинал

Файл
Кодек: MPEG-4 AVC
Качество: BDRip-AVC
Видео: 3300 Кбит/с, 1024x434, 23.976 кадр/с

Аудио #1: Русский (AC3, 6 ch, 448 Кбит/с) / Профессиональный (многоголосый закадровый) (Позитив)
Аудио #2: Русский (AC3, 6 ch, 384 Кбит/с) / Профессиональный (многоголосый закадровый) (Киномания)
Аудио #3: Русский (AC3, 6 ch, 448 Кбит/с) / Профессиональный (двухголосый закадровый) (П. Гланц, И. Королева)
Аудио #4: Русский (AC3, 6 ch, 448 Кбит/с) / Авторский (одноголосый) (А. Гаврилов)
Аудио #5: Русский (AC3, 6 ch, 448 Кбит/с) / Авторский (одноголосый) (Ю. Живов)
Аудио #6: Украинский (AC3, 6 ch, 448 Кбит/с) / Профессиональный (многоголосый закадровый) (1+1)
Аудио #7: Английский (AC3, 6 ch, 448 Кбит/с)
Субтитры: Русские, английские (2 вида)
Семпл
Общее
Уникальный идентификатор : 245063856326903951943322810892950170831 (0xB85D94F89FB793E3B358B56DF0A7ECCF)
Полное имя : D:2Films DРелизыOstrov.golovorezov.1995.x264.BDRip.AVC.MediaClub.mkv
Формат : Matroska
Версия формата : Version 2
Размер файла : 5,55 Гбайт
Продолжительность : 2 ч. 4 м.
Общий поток : 6358 Кбит/сек
Название фильма : = MediaClub = rip by Lefevr
Дата кодирования : UTC 2013-10-07 21:28:14
Программа кодирования : mkvmerge v5.4.0 ('Piper') built on Mar 10 2012 13:34:39
Библиотека кодирования : libebml v1.2.3 + libmatroska v1.3.0

Видео
Идентификатор : 1
Формат : AVC
Формат/Информация : Advanced Video Codec
Профиль формата : High@L4.1
Параметр CABAC формата : Да
Параметр ReFrames формата : 9 кадров
Идентификатор кодека : V_MPEG4/ISO/AVC
Продолжительность : 2 ч. 4 м.
Битрейт : 3300 Кбит/сек
Ширина : 1024 пикселя
Высота : 434 пикселя
Соотношение сторон : 2,35:1
Режим частоты кадров : Постоянный
Частота кадров : 23,976 кадра/сек
Цветовое пространство : YUV
Субдискретизация насыщенности : 4:2:0
Битовая глубина : 8 бит
Тип развёртки : Прогрессивная
Бит/(Пиксели*Кадры) : 0.310
Размер потока : 2,76 Гбайт (50%)
Заголовок : Ostrov.golovorezov.1995.x264.BDRip.AVC.MediaClub
Библиотека кодирования : x264 core 130 r2273 b3065e6
Настройки программы : cabac=1 / ref=9 / deblock=1:-3:-3 / analyse=0x3:0x133 / me=umh / subme=11 / psy=1 / psy_rd=1.00:0.20 / mixed_ref=1 / me_range=32 / chroma_me=1 / trellis=2 / 8x8dct=1 / cqm=0 / deadzone=21,11 / fast_pskip=0 / chroma_qp_offset=-3 / threads=6 / lookahead_threads=1 / sliced_threads=0 / nr=0 / decimate=0 / interlaced=0 / bluray_compat=0 / constrained_intra=0 / bframes=8 / b_pyramid=2 / b_adapt=2 / b_bias=0 / direct=3 / weightb=1 / open_gop=0 / weightp=2 / keyint=240 / keyint_min=23 / scenecut=40 / intra_refresh=0 / rc=2pass / mbtree=0 / bitrate=3300 / ratetol=1.0 / qcomp=0.60 / qpmin=0 / qpmax=69 / qpstep=4 / cplxblur=20.0 / qblur=0.5 / ip_ratio=1.40 / pb_ratio=1.30 / aq=1:1.00
Язык : English
Default : Да
Forced : Нет

Аудио #1
Идентификатор : 2
Формат : AC-3
Формат/Информация : Audio Coding 3
Расширение режима : CM (complete main)
Параметр Endianness формата : Big
Идентификатор кодека : A_AC3
Продолжительность : 2 ч. 4 м.
Вид битрейта : Постоянный
Битрейт : 448 Кбит/сек
Каналы : 6 каналов
Расположение каналов : Front: L C R, Side: L R, LFE
Частота : 48,0 КГц
Битовая глубина : 16 бит
Метод сжатия : С потерями
Размер потока : 400 Мбайт (7%)
Заголовок : TRACK_01_MVO_RUS_Pozitiv
Язык : Russian
Default : Да
Forced : Нет

Аудио #2
Идентификатор : 3
Формат : AC-3
Формат/Информация : Audio Coding 3
Расширение режима : CM (complete main)
Параметр Endianness формата : Big
Идентификатор кодека : A_AC3
Продолжительность : 2 ч. 4 м.
Вид битрейта : Постоянный
Битрейт : 384 Кбит/сек
Каналы : 6 каналов
Расположение каналов : Front: L C R, Side: L R, LFE
Частота : 48,0 КГц
Битовая глубина : 16 бит
Метод сжатия : С потерями
Размер потока : 343 Мбайт (6%)
Заголовок : TRACK_02_MVO_RUS_Kinomanija
Язык : Russian
Default : Нет
Forced : Нет

Аудио #3
Идентификатор : 4
Формат : AC-3
Формат/Информация : Audio Coding 3
Расширение режима : CM (complete main)
Параметр Endianness формата : Big
Идентификатор кодека : A_AC3
Продолжительность : 2 ч. 4 м.
Вид битрейта : Постоянный
Битрейт : 448 Кбит/сек
Каналы : 6 каналов
Расположение каналов : Front: L C R, Side: L R, LFE
Частота : 48,0 КГц
Битовая глубина : 16 бит
Метод сжатия : С потерями
Размер потока : 400 Мбайт (7%)
Заголовок : TRACK_03_DVO_RUS_GlancKoroleva
Язык : Russian
Default : Нет
Forced : Нет

Аудио #4
Идентификатор : 5
Формат : AC-3
Формат/Информация : Audio Coding 3
Расширение режима : CM (complete main)
Параметр Endianness формата : Big
Идентификатор кодека : A_AC3
Продолжительность : 2 ч. 4 м.
Вид битрейта : Постоянный
Битрейт : 448 Кбит/сек
Каналы : 6 каналов
Расположение каналов : Front: L C R, Side: L R, LFE
Частота : 48,0 КГц
Битовая глубина : 16 бит
Метод сжатия : С потерями
Размер потока : 400 Мбайт (7%)
Заголовок : TRACK_04_AVO_RUS_Gavrilov
Язык : Russian
Default : Нет
Forced : Нет

Аудио #5
Идентификатор : 6
Формат : AC-3
Формат/Информация : Audio Coding 3
Расширение режима : CM (complete main)
Параметр Endianness формата : Big
Идентификатор кодека : A_AC3
Продолжительность : 2 ч. 4 м.
Вид битрейта : Постоянный
Битрейт : 448 Кбит/сек
Каналы : 6 каналов
Расположение каналов : Front: L C R, Side: L R, LFE
Частота : 48,0 КГц
Битовая глубина : 16 бит
Метод сжатия : С потерями
Размер потока : 400 Мбайт (7%)
Заголовок : TRACK_05_AVO_RUS_Zhivov
Язык : Russian
Default : Нет
Forced : Нет

Аудио #6
Идентификатор : 7
Формат : AC-3
Формат/Информация : Audio Coding 3
Расширение режима : CM (complete main)
Параметр Endianness формата : Big
Идентификатор кодека : A_AC3
Продолжительность : 2 ч. 4 м.
Вид битрейта : Постоянный
Битрейт : 448 Кбит/сек
Каналы : 6 каналов
Расположение каналов : Front: L C R, Side: L R, LFE
Частота : 48,0 КГц
Битовая глубина : 16 бит
Метод сжатия : С потерями
Размер потока : 400 Мбайт (7%)
Заголовок : TRACK_06_MVO_UKR
Язык : Ukrainian
Default : Нет
Forced : Нет

Аудио #7
Идентификатор : 8
Формат : AC-3
Формат/Информация : Audio Coding 3
Расширение режима : CM (complete main)
Параметр Endianness формата : Big
Идентификатор кодека : A_AC3
Продолжительность : 2 ч. 4 м.
Вид битрейта : Постоянный
Битрейт : 448 Кбит/сек
Каналы : 6 каналов
Расположение каналов : Front: L C R, Side: L R, LFE
Частота : 48,0 КГц
Битовая глубина : 16 бит
Метод сжатия : С потерями
Размер потока : 400 Мбайт (7%)
Заголовок : TRACK_07_ORIGINAL_ENG
Язык : English
Default : Нет
Forced : Нет

Текст #1
Идентификатор : 9
Формат : UTF-8
Идентификатор кодека : S_TEXT/UTF8
Идентификатор кодека/Информация : UTF-8 Plain Text
Заголовок : TEXT_01_SUB_RUS
Язык : Russian
Default : Нет
Forced : Нет

Текст #2
Идентификатор : 10
Формат : UTF-8
Идентификатор кодека : S_TEXT/UTF8
Идентификатор кодека/Информация : UTF-8 Plain Text
Заголовок : TEXT_02_SUB_ENG
Язык : English
Default : Нет
Forced : Нет

Текст #3
Идентификатор : 11
Формат : UTF-8
Идентификатор кодека : S_TEXT/UTF8
Идентификатор кодека/Информация : UTF-8 Plain Text
Заголовок : TEXT_03_SUB_ENG
Язык : English
Default : Нет
Forced : Нет

Меню
00:00:00.000 : en:Chapter 01
00:08:38.309 : en:Chapter 02
00:16:06.757 : en:Chapter 03
00:24:43.899 : en:Chapter 04
00:32:14.933 : en:Chapter 05
00:44:02.765 : en:Chapter 06
00:51:50.982 : en:Chapter 07
00:59:58.136 : en:Chapter 08
01:04:07.260 : en:Chapter 09
01:12:05.654 : en:Chapter 10
01:16:25.664 : en:Chapter 11
01:25:20.115 : en:Chapter 12
01:32:41.347 : en:Chapter 13
01:41:38.592 : en:Chapter 14
01:49:45.203 : en:Chapter 15
01:55:41.351 : en:Chapter 16
02:04:32.047 : en:Chapter 17
x264 [info]: frame I:1566 Avg QP:15.73 size: 88094
x264 [info]: frame P:46079 Avg QP:18.32 size: 31448
x264 [info]: frame B:131511 Avg QP:20.06 size: 11367
Релиз от: | Автор рипа:



Скачать Остров.Головорезов.Cutthroat.Island.(Ренни.Харлин).[1995.боевик.мелодрама.приключения.BDRip-AVC].[MVO]x3+[DVO]+[AVO]x2+[Оригинал]+[Sub]x3.torrent без регистрации
Золото ЗОЛОТАЯ РАЗДАЧА! СКАЧАННОЕ НЕ ЗАСЧИТЫВАЕТСЯ! Золото
Дата: Зарегистрирован   [ Тип: внутренний ] Как тут cкачать?
MAGNET ссылка
MAGNET ссылка


Скачать .torrent

29 KB

Статус: проверено DHT
Скачан: торрент - 2 раз, раздача полностью - 3 раз
Размер: 5,55 GB
Оценка:  - (Голосов: 0)
Поблагодарили: 0
Поделиться ссылкой на эту раздачу с друзьями:
В контактеFacebookОдноклассникиTwitterLivejournalМой МирLiveinternet
 

 
Показать сообщения:    


Вы не можете начинать темы
Вы не можете отвечать на сообщения
Вы не можете редактировать свои сообщения
Вы не можете удалять свои сообщения
Вы не можете голосовать в опросах
Вы не можете прикреплять файлы к сообщениям
Вы можете скачивать файлы