Loading...
Error

Скачать Это – Англия. Год 1990 / This Is England '90 (Сезон 01) (Шэйн Медоуз) [2015, драма, BDRip] [720p] [DVO] (Кубик в Кубе) торрент без регистрации

 
Статистика раздачи
Размер:  11,7 GB   |    Скачан:  4 раза
Сидов:  1  [  0 KB/s  ]  
 
Автор Сообщение

leon030982

[] 

Это – Англия. Год 1990 / This Is England '90


Год Выпуска: 2015
Жанр: драма
Выпущено: Великобритания / Warp Films, Big Arty Productions
Продолжительность: 1 х 00:45:00
Перевод: Професиональный (двухголосый закадровый) (Кубик в Кубе)
Субтитры: английские

Режиссер: Шэйн Медоуз

В ролях: Лира Мэй Томас, Шанель Крессвелл, Джозеф Демпси, Кэтерин Дау Блайтон, Эндрю Эллис, Перри Фицпатрик, Джозеф Гилган, Розамунд Хэнсон, Джо Хартли, Вики МакКлюр

Описание: Великобритания. 1990 года. 2 года спустя после событий сериала "Это - Англия' 88". Комбо выпущен из тюрьмы, Шон и Гаджет отрываются на рэйвах, Милк и Вуди открывают магазин скутеров. Начинаются лихие 90-е!


Релиз:

Качество: BDRip 720p
Формат: MKV
Видео: AVC, 1280x720 (16:9), 25.000 fps, ~6242 - 7795kbps avg
Аудио #1: Russian: 48 kHz, AC3, 2.0 (L, R), ~320.00 kbps avg
Аудио #2: English: 48 kHz, AC3, 2.0 (L, R), ~320.00 kbps avg

Цитата:

Озвучка: Кубик в Кубе
Работа со звуком: messafan
Перевод: Антон Целогородцев
General
Unique ID : 252026342176204058721010795434460354720 (0xBD9A8206DBCB6D59B0276A24211898A0)
Complete name : E:\This.is.England.90.720p.BluRay.CasStudio.TV\This.is.England.90.e01.Spring.720p.BluRay.KvK.CasStudio.TV.mkv
Format : Matroska
Format version : Version 4 / Version 2
File size : 2.39 GiB
Duration : 45mn 9s
Overall bit rate : 7 571 Kbps
Movie name : This is England '90. Episode 01 "Spring" UK - release by messafan for CasStudio.TV
Encoded date : UTC 2016-02-14 14:10:12
Writing application : mkvmerge v6.7.0 ('Back to the Ground') 64bit built on Jan 8 2014 15:10:52
Writing library : libebml v1.3.0 + libmatroska v1.4.1

Video
ID : 1
Format : AVC
Format/Info : Advanced Video Codec
Format profile : High@L4.1
Format settings, CABAC : Yes
Format settings, ReFrames : 9 frames
Codec ID : V_MPEG4/ISO/AVC
Duration : 45mn 9s
Bit rate : 6 780 Kbps
Width : 1 280 pixels
Height : 720 pixels
Display aspect ratio : 16:9
Frame rate mode : Constant
Frame rate : 25.000 fps
Color space : YUV
Chroma subsampling : 4:2:0
Bit depth : 8 bits
Scan type : Progressive
Bits/(Pixel*Frame) : 0.294
Stream size : 2.14 GiB (90%)
Title : This is England '90. Episode 01 "Spring" UK
Writing library : x264 core 146 r2538kMod 121396c
Encoding settings : cabac=1 / ref=9 / deblock=1:-3:-3 / analyse=0x3:0x133 / me=umh / subme=11 / psy=1 / fade_compensate=0.00 / psy_rd=1.00:0.00 / mixed_ref=1 / me_range=32 / chroma_me=1 / trellis=2 / 8x8dct=1 / cqm=0 / deadzone=21,11 / fast_pskip=1 / chroma_qp_offset=-2 / threads=12 / lookahead_threads=3 / sliced_threads=0 / nr=0 / decimate=1 / interlaced=0 / bluray_compat=0 / constrained_intra=0 / fgo=0 / bframes=10 / b_pyramid=2 / b_adapt=2 / b_bias=0 / direct=3 / weightb=1 / open_gop=0 / weightp=2 / keyint=250 / keyint_min=25 / scenecut=40 / intra_refresh=0 / rc=crf / mbtree=0 / crf=15.0000 / qcomp=0.65 / qpmin=0 / qpmax=69 / qpstep=4 / ip_ratio=1.25 / pb_ratio=1.20 / aq=1:0.60
Language : English
Default : Yes
Forced : No

Audio #1
ID : 2
Format : AC-3
Format/Info : Audio Coding 3
Mode extension : CM (complete main)
Format settings, Endianness : Big
Codec ID : A_AC3
Duration : 45mn 9s
Bit rate mode : Constant
Bit rate : 320 Kbps
Channel(s) : 2 channels
Channel positions : Front: L R
Sampling rate : 48.0 KHz
Compression mode : Lossy
Stream size : 103 MiB (4%)
Title : KvK DD2.0 @ 320kbps
Language : Russian
Default : Yes
Forced : No

Audio #2
ID : 3
Format : AC-3
Format/Info : Audio Coding 3
Mode extension : CM (complete main)
Format settings, Endianness : Big
Codec ID : A_AC3
Duration : 45mn 9s
Bit rate mode : Constant
Bit rate : 320 Kbps
Channel(s) : 2 channels
Channel positions : Front: L R
Sampling rate : 48.0 KHz
Compression mode : Lossy
Stream size : 103 MiB (4%)
Title : English DD2.0 @ 320kbps
Language : English
Default : No
Forced : No

Text #1
ID : 4
Format : ASS
Codec ID : S_TEXT/ASS
Codec ID/Info : Advanced Sub Station Alpha
Compression mode : Lossless
Title : ASS
Language : English
Default : No
Forced : No

Text #2
ID : 5
Format : ASS
Codec ID : S_TEXT/ASS
Codec ID/Info : Advanced Sub Station Alpha
Compression mode : Lossless
Title : ASS SDH
Language : English
Default : No
Forced : No

Text #3
ID : 6
Format : UTF-8
Codec ID : S_TEXT/UTF8
Codec ID/Info : UTF-8 Plain Text
Title : Eng sub
Language : English
Default : No
Forced : No

Text #4
ID : 7
Format : UTF-8
Codec ID : S_TEXT/UTF8
Codec ID/Info : UTF-8 Plain Text
Title : SDH
Language : English
Default : No
Forced : No

Menu
00:00:00.000 : en:1. School Denners
00:09:54.160 : en:2. A Quids Worth
00:17:13.920 : en:3. Stalking Smell
00:25:34.640 : en:4. The Rave
00:30:43.120 : en:5. Sniffbanging
00:36:55.000 : en:6. Apologies



Скачать Это.–.Англия.Год.1990.This.Is.England.'90.(Сезон.01).(Шэйн.Медоуз).[2015.драма.BDRip].[720p].[DVO].(Кубик.в.Кубе).torrent без регистрации
Золото ЗОЛОТАЯ РАЗДАЧА! СКАЧАННОЕ НЕ ЗАСЧИТЫВАЕТСЯ! Золото
Дата: Зарегистрирован   [ Тип: внутренний ] Как тут cкачать?
MAGNET ссылка
MAGNET ссылка


Скачать .torrent

59 KB

Статус: проверено DHT
Скачан: торрент - 4 раз, раздача полностью - 1 раз
Размер: 11,7 GB
Оценка:  - (Голосов: 0)
Поблагодарили: 0
Поделиться ссылкой на эту раздачу с друзьями:
В контактеFacebookОдноклассникиTwitterLivejournalМой МирLiveinternet
 

 
Показать сообщения:    


Вы не можете начинать темы
Вы не можете отвечать на сообщения
Вы не можете редактировать свои сообщения
Вы не можете удалять свои сообщения
Вы не можете голосовать в опросах
Вы не можете прикреплять файлы к сообщениям
Вы можете скачивать файлы