Loading...
Error

Скачать Голиаф / Goliath (Сезон 01) (Лоуренс Триллинг, Алик Сахаров, Билл Д Элиа) [2016, драма, WEBRip] [1080p] [MVO] (NewStudio) торрент без регистрации

 
Статистика раздачи
Размер:  37,89 GB   |    Скачан:  2 раза
Сидов:  1  [  0 KB/s  ]  
 
Автор Сообщение

leon030982

[] 


Голиаф | Goliath


• Год выпуска: 2016
• Страна: США
• Жанр: драма
• Продолжительность: 1х~ 00:55:00
• Перевод: Профессиональный (многоголосный, закадровый) | NewStudio

• Режиссёр: Лоуренс Триллинг, Алик Сахаров, Билл Д Элиа

• В ролях: Билли Боб Торнтон, Уильям Хёрт, Мария Белло, Оливия Тирлби, Нина Арианда, Молли Паркер, Таня Рэймонд, Сара Уайнтер, Бритен Далтон, Дэймон Гаптон

• Описание: В руки опального адвоката, гоняющегося за машинами скорой помощи в поисках новых клиентов, попадает дело, которое может принести ему искупление или, по крайней мере, возможность отомстить фирме, вышвырнувшей его на улицу



• Качество: WEBRip 1080p
• Формат: MKV
• Видео: MPEG-4 AVC, ~ 9000 Кбит/с, 1920x960, 23,976 fps
• Аудио #1: AC3, 48 kHz, 6 ch, 384 kbps, CBR - Rus
• Аудио #2: E-AC-3 , 48 kHz, 6 ch, 640 kbps, CBR - Eng
• Субтитры: отсутствуют

Перевод: Юлия Мейер, Александра Цернант, Алексей Корягин, Булат Карабасов
General
Unique ID : 206966675207112708578370205004005895859 (0x9BB454EC124B0425B71C84D1C81FEEB3)
Complete name : E:\Goliath.s01.WEB.1080p.NewStudio\Goliath.s01e01.WEB.1080p.NewStudio.TV.mkv
Format : Matroska
Format version : Version 4 / Version 2
File size : 3.89 GiB
Duration : 54mn 50s
Overall bit rate : 10.1 Mbps
Encoded date : UTC 2016-11-21 17:20:12
Writing application : mkvmerge v6.7.0 ('Back to the Ground') 32bit built on Jan 8 2014 15:03:17
Writing library : libebml v1.3.0 + libmatroska v1.4.1

Video
ID : 1
Format : AVC
Format/Info : Advanced Video Codec
Format profile : High@L4.1
Format settings, CABAC : Yes
Format settings, ReFrames : 4 frames
Codec ID : V_MPEG4/ISO/AVC
Duration : 54mn 50s
Bit rate : 8 922 Kbps
Width : 1 920 pixels
Height : 960 pixels
Display aspect ratio : 2.000
Frame rate mode : Constant
Frame rate : 23.976 fps
Color space : YUV
Chroma subsampling : 4:2:0
Bit depth : 8 bits
Scan type : Progressive
Bits/(Pixel*Frame) : 0.202
Stream size : 3.42 GiB (88%)
Writing library : x264 core 144 r2525 40bb568
Encoding settings : cabac=1 / ref=4 / deblock=1:-3:-3 / analyse=0x3:0x133 / me=umh / subme=10 / psy=1 / psy_rd=1.00:0.00 / mixed_ref=1 / me_range=48 / chroma_me=1 / trellis=2 / 8x8dct=1 / cqm=0 / deadzone=21,11 / fast_pskip=1 / chroma_qp_offset=-2 / threads=12 / lookahead_threads=2 / sliced_threads=0 / nr=0 / decimate=1 / interlaced=0 / bluray_compat=0 / constrained_intra=0 / bframes=8 / b_pyramid=2 / b_adapt=2 / b_bias=0 / direct=3 / weightb=1 / open_gop=0 / weightp=2 / keyint=250 / keyint_min=23 / scenecut=40 / intra_refresh=0 / rc=crf / mbtree=0 / crf=17.0 / qcomp=0.60 / qpmin=0 / qpmax=69 / qpstep=4 / ip_ratio=1.30 / pb_ratio=1.20 / aq=3:0.80
Language : English
Default : Yes
Forced : No

Audio #1
ID : 2
Format : AC-3
Format/Info : Audio Coding 3
Mode extension : CM (complete main)
Format settings, Endianness : Big
Codec ID : A_AC3
Duration : 54mn 50s
Bit rate mode : Constant
Bit rate : 384 Kbps
Channel(s) : 6 channels
Channel positions : Front: L C R, Side: L R, LFE
Sampling rate : 48.0 KHz
Compression mode : Lossy
Stream size : 151 MiB (4%)
Language : Russian
Default : Yes
Forced : Yes

Audio #2
ID : 3
Format : E-AC-3
Format/Info : Audio Coding 3
Format settings, Endianness : Big
Codec ID : A_EAC3
Duration : 54mn 50s
Bit rate mode : Constant
Bit rate : 640 Kbps
Channel(s) : 6 channels
Channel positions : Front: L C R, Side: L R, LFE
Sampling rate : 48.0 KHz
Compression mode : Lossy
Stream size : 251 MiB (6%)
Language : English
Default : No
Forced : No



Скачать Голиаф.Goliath.(Сезон.01).(Лоуренс.Триллинг.Алик.Сахаров.Билл.Д.Элиа).[2016.драма.WEBRip].[1080p].[MVO].(NewStudio).torrent без регистрации
Золото ЗОЛОТАЯ РАЗДАЧА! СКАЧАННОЕ НЕ ЗАСЧИТЫВАЕТСЯ! Золото
Дата: Зарегистрирован   [ Тип: внутренний ] Как тут cкачать?
MAGNET ссылка
MAGNET ссылка


Скачать .torrent

191 KB

Статус: проверено DHT
Скачан: торрент - 2 раз, раздача полностью - 3 раз
Размер: 37,89 GB
Оценка:  - (Голосов: 0)
Поблагодарили: 0
Поделиться ссылкой на эту раздачу с друзьями:
В контактеFacebookОдноклассникиTwitterLivejournalМой МирLiveinternet
 

 
Показать сообщения:    


Вы не можете начинать темы
Вы не можете отвечать на сообщения
Вы не можете редактировать свои сообщения
Вы не можете удалять свои сообщения
Вы не можете голосовать в опросах
Вы не можете прикреплять файлы к сообщениям
Вы можете скачивать файлы