Loading...
Error

Скачать Кальмар и кит / The Squid and the Whale (Ноа Баумбах) [2005, драма, комедия, BDRip-AVC] [MVO]+[DVO]+[Sub]x2 торрент без регистрации

 
Статистика раздачи
Размер:  2,18 GB   |    Скачан:  0 раз
Сидов:  1  [  0 KB/s  ]  
 
Автор Сообщение

Marsianka

[] 



Информация о фильме
Название: Кальмар и кит
Оригинальное название: The Squid and the Whale
Год выхода: 2005
Жанр: драма, комедия
Режиссер: Ноа Баумбах
В ролях: Джефф Дэниелс, Лора Линни, Джесси Айзенберг, Оуэн Клайн, Уильям Болдуин, Дэвид Бенджер, Анна Пэкуин, Молли Бартон, Бо Беркман, Мэттью Каплан

О фильме:
Глава эксцентричной бруклинской семьи в свое время был известным писателем, однако сейчас он вынужден преподавать. Когда его жена открывает в себе писательский талант, ревность разрывает семью пополам, заставляя двух их сыновей заново строить отношения с родителями. Жена начинает встречаться с тренером младшего сына по теннису, в то время как муж заводит роман со своей студенткой, за которой также ухаживает старший сын.



Страна: США
Продолжительность: 01:21:13
Перевод: Профессиональный (многоголосый закадровый) Видео-Сервис, Любительский (двухголосый закадровый)
Cубтитры: русские, английские

Файл
Кодек: AVC
Качество: BDRip-AVC
Видео: 1060x572, 23.976 fps, High@L4.1, ~2810 kbps
Аудио #1: 48 kHz, AC3 Dolby Digital, 3/2 (L,C,R,l,r) + LFE ch, ~384 kbps - MVO - ВидеоСервис
Аудио #2: 48 kHz, AC3 Dolby Digital, 192 kbps 2.0 ch, 192 kbps - Любительский (двухголосый закадровый)
Аудио #3: 48 kHz, AC3 Dolby Digital, 3/2 (L,C,R,l,r) + LFE ch, ~448 kbps - English


General
Unique ID : 58272264818100996238719671040668109989 (0x2BD6D4792DD1069F4FB8A71D97A08CA5)
Complete name : F:Кальмар и кит.(2005).REMASTERED.BDRIP-AVC.[-=DoMiNo=-].mkv
Format : Matroska
Format version : Version 4 / Version 2
File size : 2.18 GiB
Duration : 1 h 21 min
Overall bit rate : 3 834 kb/s
Deion : Глава эксцентричной бруклинской семьи в свое время был известным писателем, однако сейчас он вынужден преподавать. Когда его жена открывает в себе писательский талант, ревность разрывает семью пополам, заставляя двух их сыновей заново строить отношения с родителями. Жена начинает встречаться с тренером младшего сына по теннису, в то время как муж заводит роман со своей студенткой, за которой также ухаживает старший сын.
Writing application : XviD4PSP 7.0.324 DAILY
Writing library : Lavf57.41.100 / Lavf57.41.100
Cover : Yes
Attachments : cover.jpg
ACTORS : Джефф Дэниелс, Лора Линни, Джесси Айзенберг, Оуэн Клайн, Уильям Болдуин, Дэвид Бенджер, Анна Пэкуин, Молли Бартон, Бо Беркман, Мэттью Каплан
COUNTRY : США
DIRECTOR : Noah Baumbach
ENCODING_INFO : BluRay > MKV / H264 > X264 VBR-2P 2810kbps Произвольный / AC3 > COPY / AC3 > COPY / DTS-HD MA > AC3 CBR 448kbps
GENRE : драма, комедия

Video
ID : 1
Format : AVC
Format/Info : Advanced Video Codec
Format profile : High@L4.1
Format settings, CABAC : Yes
Format settings, ReFrames : 12 frames
Codec ID : V_MPEG4/ISO/AVC
Bit rate : 2 810 kb/s
Width : 1 060 pixels
Height : 572 pixels
Display aspect ratio : 1.85:1
Frame rate mode : Variable
Original frame rate : 23.976 FPS
Color space : YUV
Chroma subsampling : 4:2:0
Bit depth : 8 bits
Scan type : Progressive
Bits/(Pixel*Frame) : 0.193
Title : Rip_by_[-=DoMiNo=-]
Writing library : x264 core 148 r2721M 72d53ab
Encoding settings : cabac=1 / ref=12 / deblock=1:-3:-3 / analyse=0x3:0x133 / me=umh / subme=11 / psy=1 / psy_rd=1.00:0.10 / mixed_ref=1 / me_range=32 / chroma_me=1 / trellis=2 / 8x8dct=1 / cqm=0 / deadzone=21,11 / fast_pskip=0 / chroma_qp_offset=-3 / threads=5 / lookahead_threads=1 / sliced_threads=0 / nr=0 / decimate=1 / interlaced=0 / bluray_compat=0 / constrained_intra=0 / bframes=11 / b_pyramid=2 / b_adapt=2 / b_bias=0 / direct=3 / weightb=1 / open_gop=0 / weightp=2 / keyint=230 / keyint_min=23 / scenecut=40 / intra_refresh=0 / rc=2pass / mbtree=0 / bitrate=2810 / ratetol=1.0 / qcomp=0.60 / qpmin=0 / qpmax=69 / qpstep=4 / cplxblur=20.0 / qblur=0.5 / ip_ratio=1.40 / pb_ratio=1.30 / aq=1:1.00
Default : Yes
Forced : No
DURATION : 01:21:25.886000000

Audio #1
ID : 2
Format : AC-3
Format/Info : Audio Coding 3
Mode extension : CM (complete main)
Format settings, Endianness : Big
Codec ID : A_AC3
Duration : 1 h 21 min
Bit rate mode : Constant
Bit rate : 384 kb/s
Channel(s) : 6 channels
Channel positions : Front: L C R, Side: L R, LFE
Sampling rate : 48.0 kHz
Frame rate : 31.250 FPS (1536 spf)
Bit depth : 16 bits
Compression mode : Lossy
Delay relative to video : 5 ms
Stream size : 224 MiB (10%)
Title : Профессиональный (многоголосый закадровый) Видео-Сервис
Language : Russian
Default : Yes
Forced : No
DURATION : 01:21:25.957000000

Audio #2
ID : 3
Format : AC-3
Format/Info : Audio Coding 3
Mode extension : CM (complete main)
Format settings, Endianness : Big
Codec ID : A_AC3
Duration : 1 h 21 min
Bit rate mode : Constant
Bit rate : 192 kb/s
Channel(s) : 2 channels
Channel positions : Front: L R
Sampling rate : 48.0 kHz
Frame rate : 31.250 FPS (1536 spf)
Bit depth : 16 bits
Compression mode : Lossy
Delay relative to video : 5 ms
Stream size : 112 MiB (5%)
Title : Любительский (двухголосый закадровый)
Language : Russian
Default : No
Forced : No
DURATION : 01:21:25.957000000

Audio #3
ID : 4
Format : AC-3
Format/Info : Audio Coding 3
Mode extension : CM (complete main)
Format settings, Endianness : Big
Codec ID : A_AC3
Duration : 1 h 21 min
Bit rate mode : Constant
Bit rate : 448 kb/s
Channel(s) : 6 channels
Channel positions : Front: L C R, Side: L R, LFE
Sampling rate : 48.0 kHz
Frame rate : 31.250 FPS (1536 spf)
Bit depth : 16 bits
Compression mode : Lossy
Stream size : 261 MiB (12%)
Title : ENG
Language : English
Default : No
Forced : No
DURATION : 01:21:25.952000000

Text #1
ID : 5
Format : UTF-8
Codec ID : S_TEXT/UTF8
Codec ID/Info : UTF-8 Plain Text
Title : Rus
Language : Russian
Default : Yes
Forced : No
DURATION : 01:14:39.038000000

Text #2
ID : 6
Format : UTF-8
Codec ID : S_TEXT/UTF8
Codec ID/Info : UTF-8 Plain Text
Title : Eng
Language : Russian
Default : No
Forced : No
DURATION : 01:14:38.771000000

Menu
00:00:00.000 : :Глава 1
00:05:00.000 : :Глава 2
00:10:00.000 : :Глава 3
00:15:00.000 : :Глава 4
00:20:00.000 : :Глава 5
00:25:00.000 : :Глава 6
00:30:00.000 : :Глава 7
00:35:00.000 : :Глава 8
00:40:00.000 : :Глава 9
00:45:00.000 : :Глава 10
00:50:00.000 : :Глава 11
00:55:00.000 : :Глава 12
01:00:00.000 : :Глава 13
01:05:00.000 : :Глава 14
01:10:00.000 : :Глава 15
01:15:00.000 : :Глава 16
01:20:00.000 : :Глава 17





Скачать Кальмар.и.кит.The.Squid.and.the.Whale.(Ноа.Баумбах).[2005.драма.комедия.BDRip-AVC].[MVO]+[DVO]+[Sub]x2.torrent без регистрации
Золото ЗОЛОТАЯ РАЗДАЧА! СКАЧАННОЕ НЕ ЗАСЧИТЫВАЕТСЯ! Золото
Дата: Зарегистрирован   [ Тип: внутренний ] Как тут cкачать?
MAGNET ссылка
MAGNET ссылка


Скачать .torrent

12 KB

Статус: проверено DHT
Скачан: торрент - 0 раз, раздача полностью - 0 раз
Размер: 2,18 GB
Оценка:  - (Голосов: 0)
Поблагодарили: 0
Поделиться ссылкой на эту раздачу с друзьями:
В контактеFacebookОдноклассникиTwitterLivejournalМой МирLiveinternet
 

 
Показать сообщения:    


Вы не можете начинать темы
Вы не можете отвечать на сообщения
Вы не можете редактировать свои сообщения
Вы не можете удалять свои сообщения
Вы не можете голосовать в опросах
Вы не можете прикреплять файлы к сообщениям
Вы можете скачивать файлы