Loading...
Error

/ People of Earth ( 01, 01-06 10) ( , ) [2016, , , , HDTVRip] [720p] [MVO] (Jaskier) + [Orig]

 
2,41 GB   |    :  5
1  [  0 KB/s  ]  
 

leon030982

[] 

/ People of Earth

: 2016
:
: , ,
: 1x~ 00:20:00
: ( ) Jaskier
:

: ,

: , , , , , , , .

: - , , . , . , , , , - .


: HDTVRip 720p
: MKV
: AVC
: AC3
: AVC, 1280x720 (16:9), 23.976 fps, ~2200kbps, ~0.179 bit/pixel
1: Dolby AC3, 48000Hz, 2Ch, 192Kbps [MVO]
2: Dolby AC3, 48000Hz, 2Ch, 384Kbps [ENG]

! 5-6-

:

General
Unique ID : 193891351482383982047817219575846304194 (0x91DE1DB0B7FCC5D4BB7C7E1BFDEC79C2)
Complete name : Z:\HD\People of Earth. Season 1 (HDTVRip l 720p l Jaskier)\People.of.Earth.S01E01.720p.HDTV.x264-JASKiER.mkv
Format : Matroska
Format version : Version 2
File size : 556 MiB
Duration : 21mn 2s
Overall bit rate : 3 694 Kbps
Encoded date : UTC 2016-11-29 23:32:17
Writing application : mkvmerge v5.4.0 ('Piper') built on Mar 10 2012 13:34:39
Writing library : libebml v1.2.3 + libmatroska v1.3.0
Video
ID : 1
Format : AVC
Format/Info : Advanced Video Codec
Format profile : High@L4.1
Format settings, CABAC : Yes
Format settings, ReFrames : 5 frames
Codec ID : V_MPEG4/ISO/AVC
Duration : 21mn 2s
Bit rate : 3 045 Kbps
Width : 1 280 pixels
Height : 720 pixels
Display aspect ratio : 16:9
Frame rate mode : Constant
Frame rate : 23.976 fps
Color space : YUV
Chroma subsampling : 4:2:0
Bit depth : 8 bits
Scan type : Progressive
Bits/(Pixel*Frame) : 0.138
Stream size : 458 MiB (82%)
Writing library : x264 core 148 r2705 3f5ed56
Encoding settings : cabac=1 / ref=5 / deblock=1:0:0 / analyse=0x3:0x113 / me=umh / subme=8 / psy=1 / psy_rd=1.00:0.00 / mixed_ref=1 / me_range=16 / chroma_me=1 / trellis=1 / 8x8dct=1 / cqm=0 / deadzone=21,11 / fast_pskip=1 / chroma_qp_offset=-2 / threads=22 / lookahead_threads=3 / sliced_threads=0 / nr=0 / decimate=1 / interlaced=0 / bluray_compat=0 / constrained_intra=0 / bframes=3 / b_pyramid=2 / b_adapt=2 / b_bias=0 / direct=3 / weightb=1 / open_gop=0 / weightp=2 / keyint=250 / keyint_min=23 / scenecut=40 / intra_refresh=0 / rc_lookahead=50 / rc=crf / mbtree=1 / crf=18.0 / qcomp=0.60 / qpmin=0 / qpmax=69 / qpstep=4 / ip_ratio=1.40 / aq=1:1.00
Default : Yes
Forced : No
Color range : Limited
Matrix coefficients : BT.709
Audio #1
ID : 2
Format : AC-3
Format/Info : Audio Coding 3
Mode extension : CM (complete main)
Format settings, Endianness : Big
Codec ID : A_AC3
Duration : 21mn 2s
Bit rate mode : Constant
Bit rate : 192 Kbps
Channel(s) : 2 channels
Channel positions : Front: L R
Sampling rate : 48.0 KHz
Compression mode : Lossy
Stream size : 28.9 MiB (5%)
Language : Russian
Default : Yes
Forced : No
Audio #2
ID : 3
Format : AC-3
Format/Info : Audio Coding 3
Mode extension : CM (complete main)
Format settings, Endianness : Big
Codec ID : A_AC3
Duration : 21mn 2s
Bit rate mode : Constant
Bit rate : 384 Kbps
Channel(s) : 2 channels
Channel positions : Front: L R
Sampling rate : 48.0 KHz
Compression mode : Lossy
Stream size : 57.8 MiB (10%)
Default : No
Forced : No
! ; . , :
.
( ).
, .
() ( - ), . , !
E , , . , , .



.People.of.Earth.(.01..01-06..10).(...).[2016....HDTVRip].[720p].[MVO].(Jaskier).+.[Orig].torrent
  ! ! 
:   [ : ] c?
MAGNET
MAGNET


.torrent

13 KB

: DHT
: - 5 , - 0
: 2,41 GB
- (: 0)
: 0
:
 FacebookTwitterLivejournal Liveinternet
 

 
: