Loading...
Error

Скачать Лжец, лжец / Liar Liar (Том Шэдьяк) [1997, комедия, HDRip] [MVO] торрент без регистрации

 
Статистика раздачи
Размер:  745 MB   |    Скачан:  2 раза
Сидов:  1  [  0 KB/s  ]  
 
Автор Сообщение

Marsianka

[] 

Информация о фильме
Название: Лжец, лжец
Оригинальное название: Liar Liar
Год выхода: 1997
Жанр: комедия
Режиссер: Том Шэдьяк
В ролях: Джим Керри, Мора Тирни, Джастин Купер, Кэри Элвис, Энн Хейни, Дженнифер Тилли, Аманда Донохью, Джейсон Бернард, Свузи Кёрц, Митч Райан

О фильме: Флетчер Рид - блестящий адвокат и неисправимый лжец. Он по привычке врет жене Одри, сыну Максу и учит клиентов подстраивать правду под свои нужды, перекраивать истину ради своей выгоды. Жена бросает Флетчера из-за его вредной привычки лгать, а сын Макс в свой день рождения, задувая свечи на торте, загадывает только одно желание: «Хочу, чтоб мой любимый папочка перестал постоянно врать».
Желание сбывается, и неожиданно для Флетчера Рида язык, который всегда был его рабочим инструментом, превращается в его главного врага. Флетчер начинает говорить обидную правду своему начальнику и клиентам. Эта правдивость может стоить адвокату работы! Но самое страшное ждет правдивого поневоле Флетчера в зале суда, когда будет слушаться дело о разводе его клиента. Без вранья он не сможет выиграть! Да, этот день своей жизни Флетчер Рид не забудет никогда...



Страна: США
Продолжительность: 01:26:29
Перевод: Профессиональный (многоголосый, закадровый) (СТС)
Субтитры: Нет

Семпл

Файл
Кодек: XviD
Качество: HDRip
Видео: 720x384 (1.88:1), 23.976 fps, XviD build 73 ~1072 kbps avg, 0.16 bit/pixel
Звук: 48 kHz, MPEG Layer 3, 2 ch, ~128.00 kbps avg
Общее
Полное имя : Liar.Liar.1997.HDRip.ot.Portablius.avi
Формат : AVI
Формат/Информация : Audio Video Interleave
Размер файла : 745 Мбайт
Продолжительность : 1 ч. 26 м.
Общий поток : 1210 Кбит/сек
Программа кодирования : VirtualDubMod 1.5.10.3 | www.virtualdub-fr.org || (build 2550/release)
Библиотека кодирования : VirtualDub build 35491/release

Видео
Идентификатор : 0
Формат : MPEG-4 Visual
Профиль формата : Advanced Simple@L5
Параметр BVOP формата : 1
Параметр QPel формата : Нет
Параметр GMC формата : Без точки перехода
Параметр матрицы формата : Выборочная
Идентификатор кодека : XVID
Идентификатор кодека/Подсказка : XviD
Продолжительность : 1 ч. 26 м.
Битрейт : 1073 Кбит/сек
Ширина : 720 пикселей
Высота : 384 пикселя
Соотношение сторон : 1,85:1
Частота кадров : 23,976 (24000/1001) кадра/сек
Частота кадров в оригинале : 23,976 (23976/1000) кадра/сек
Цветовое пространство : YUV
Субдискретизация насыщенности : 4:2:0
Битовая глубина : 8 бит
Тип развёртки : Прогрессивная
Метод сжатия : С потерями
Бит/(Пиксели*Кадры) : 0.162
Размер потока : 661 Мбайт (89%)
Библиотека кодирования : XviD 73

Аудио
Идентификатор : 1
Формат : MPEG Audio
Версия формата : Version 1
Профиль формата : Layer 3
Идентификатор кодека : 55
Идентификатор кодека/Подсказка : MP3
Продолжительность : 1 ч. 25 м.
Вид битрейта : Постоянный
Битрейт : 128 Кбит/сек
Каналы : 2 канала
Частота : 48,0 КГц
Метод сжатия : С потерями
Размер потока : 78,7 Мбайт (11%)
Выравнивание : Соединение по промежуткам
Продолжительность промежутка : 42 мс. (1,00 видеокадр)
Время предзагрузки промежутка : 504 мс.
Библиотека кодирования : LAME3.99r
Настройки программы : -m s -V 4 -q 2 -lowpass 17 -b 128



Скачать Лжец.лжец.Liar.Liar.(Том.Шэдьяк).[1997.комедия.HDRip].[MVO].torrent без регистрации
Золото ЗОЛОТАЯ РАЗДАЧА! СКАЧАННОЕ НЕ ЗАСЧИТЫВАЕТСЯ! Золото
Дата: Зарегистрирован   [ Тип: внутренний ] Как тут cкачать?
MAGNET ссылка
MAGNET ссылка


Скачать .torrent

15 KB

Статус: проверено DHT
Скачан: торрент - 2 раз, раздача полностью - 6 раз
Размер: 745 MB
Оценка:  - (Голосов: 0)
Поблагодарили: 1
Поделиться ссылкой на эту раздачу с друзьями:
В контактеFacebookОдноклассникиTwitterLivejournalМой МирLiveinternet
 

 
Показать сообщения:    


Вы не можете начинать темы
Вы не можете отвечать на сообщения
Вы не можете редактировать свои сообщения
Вы не можете удалять свои сообщения
Вы не можете голосовать в опросах
Вы не можете прикреплять файлы к сообщениям
Вы можете скачивать файлы