Loading...
Error

Скачать Недоумки / Доноры мозга / Brain Donors (Деннис Дуган) [1992, комедия, WEB-DLRip] [DVO]+[VO]+[AVO] торрент без регистрации

 
Статистика раздачи
Размер:  1,37 GB   |    Скачан:  0 раз
Сидов:  1  [  0 KB/s  ]  
 
Автор Сообщение

Marsianka

[] 

Информация о фильме
Название: Недоумки / Доноры мозга
Оригинальное название: Brain Donors
Год выхода: 1992
Жанр: комедия
Режиссер: Деннис Дуган
В ролях: Джон Туртурро, Боб Нельсон, Мэл Смит, Джордж Де Ла Пена, Джон Сэвидент, Спайк Александр, Джулиана Дональд, Нэнси Маршанд, Тери Копли, Ирен Ольга Лопез...

О фильме:
После того, как мультимиллионер Огелторп «поставил кеды в угол», его богатенькая, но не слишком сообразительная вдова-старушенция решила осуществить свою заветную мечту: основать собственную балетную труппу. В этом благом начинании ей пытаются оказать активное содействие герои этой картины — три законченных болвана: адвокат Флэкфайзер и два его «бравых» ассистента — «заторможенный» садовник Жак и бестолковый водитель такси Рокко. Идиот Флэкфайзер и компания «вплотную» приступают к ответственной миссии по созданию балетного коллектива, как, впрочем, и по освобождению наивной вдовы Огелторп от излишних денежных ресурсов.



Страна: США
Продолжительность: 01:19:21
Перевод: Профессиональный (двухголосый закадровый), Любительский (одноголосый закадровый) В. Завгородний, Авторский (одноголосый закадровый) А. Марченко

Файл
Кодек: XviD
Качество: WEB-DLRip
Видео: 704x400, 23,976 fps, 1879 kbps
Аудио 1: 48 kHz, AC3 Dolby Digital, 2/0 (L,R) ch, ~192 kbps | Профессиональный (двухголосый закадровый)
Аудио 2: 48 kHz, AC3 Dolby Digital, 2/0 (L,R) ch, ~192 kbps | Любительский (одноголосый закадровый) В. Завгородний
Аудио 3 : 48 kHz, AC3 Dolby Digital, 2/0 (L,R) ch, ~192 kbps | Авторский (одноголосый закадровый) А. Марченко
Общее
Полное имя : Brain.Donors.1992.WEB-DLRip.avi
Формат : AVI
Формат/Информация : Audio Video Interleave
Размер файла : 1,37 Гбайт
Продолжительность : 1 ч. 19 м.
Общий поток : 2474 Кбит/сек
Программа кодирования : VirtualDubMod 1.5.10.2 (build 2542/release)
Библиотека кодирования : VirtualDubMod build 2542/release

Видео
Идентификатор : 0
Формат : MPEG-4 Visual
Профиль формата : Advanced Simple@L5
Параметр BVOP формата : 1
Параметр QPel формата : Нет
Параметр GMC формата : Без точки перехода
Параметр матрицы формата : Выборочная
Идентификатор кодека : XVID
Идентификатор кодека/Подсказка : XviD
Продолжительность : 1 ч. 19 м.
Битрейт : 1879 Кбит/сек
Ширина : 704 пикс.
Высота : 400 пикс.
Соотношение сторон : 16:9
Частота кадров : 23,976 кадр/сек
Цветовое пространство : YUV
Подвыборка цветности : 4:2:0
Битовая глубина : 8 бит
Тип развёртки : Прогрессивная
Метод сжатия : С потерями
Бит/(Пиксели*Кадры) : 0.278
Размер потока : 1,04 Гбайт (76%)
Библиотека кодирования : XviD 73

Аудио #1
Идентификатор : 1
Формат : AC-3
Формат/Информация : Audio Coding 3
Расширение режима : CM (complete main)
Идентификатор кодека : 2000
Продолжительность : 1 ч. 19 м.
Вид битрейта : Постоянный
Битрейт : 192 Кбит/сек
Канал(ы) : 2 канала(ов)
Расположение каналов : Front: L R
Частота : 48,0 КГц
Битовая глубина : 16 бит
Метод сжатия : С потерями
Размер потока : 109 Мбайт (8%)
Выравнивание : Разделение по промежуткам
Продолжительность промежутка : 42 мс. (1,00 видеокадр)
Время предзагрузки промежутка : 500 ms

Аудио #2
Идентификатор : 2
Формат : AC-3
Формат/Информация : Audio Coding 3
Расширение режима : CM (complete main)
Идентификатор кодека : 2000
Продолжительность : 1 ч. 19 м.
Вид битрейта : Постоянный
Битрейт : 192 Кбит/сек
Канал(ы) : 2 канала(ов)
Расположение каналов : Front: L R
Частота : 48,0 КГц
Битовая глубина : 16 бит
Метод сжатия : С потерями
Размер потока : 109 Мбайт (8%)
Выравнивание : Разделение по промежуткам
Продолжительность промежутка : 42 мс. (1,00 видеокадр)
Время предзагрузки промежутка : 500 ms

Аудио #3
Идентификатор : 3
Формат : AC-3
Формат/Информация : Audio Coding 3
Расширение режима : CM (complete main)
Идентификатор кодека : 2000
Продолжительность : 1 ч. 19 м.
Вид битрейта : Постоянный
Битрейт : 192 Кбит/сек
Канал(ы) : 2 канала(ов)
Расположение каналов : Front: L R
Частота : 48,0 КГц
Битовая глубина : 16 бит
Метод сжатия : С потерями
Размер потока : 109 Мбайт (8%)
Выравнивание : Разделение по промежуткам
Продолжительность промежутка : 42 мс. (1,00 видеокадр)
Время предзагрузки промежутка : 500 ms
Релиз от: Leon-masl



Скачать Недоумки.Доноры.мозга.Brain.Donors.(Деннис.Дуган).[1992.комедия.WEB-DLRip].[DVO]+[VO]+[AVO].torrent без регистрации
Золото ЗОЛОТАЯ РАЗДАЧА! СКАЧАННОЕ НЕ ЗАСЧИТЫВАЕТСЯ! Золото
Дата: Зарегистрирован   [ Тип: внутренний ] Как тут cкачать?
MAGNET ссылка
MAGNET ссылка


Скачать .torrent

15 KB

Статус: проверено DHT
Скачан: торрент - 0 раз, раздача полностью - 0 раз
Размер: 1,37 GB
Оценка:  - (Голосов: 0)
Поблагодарили: 1
Поделиться ссылкой на эту раздачу с друзьями:
В контактеFacebookОдноклассникиTwitterLivejournalМой МирLiveinternet
 

 
Показать сообщения:    


Вы не можете начинать темы
Вы не можете отвечать на сообщения
Вы не можете редактировать свои сообщения
Вы не можете удалять свои сообщения
Вы не можете голосовать в опросах
Вы не можете прикреплять файлы к сообщениям
Вы можете скачивать файлы