Loading...
Error

Скачать (Концерт, диско) Новогодняя дискотека 80-х от Авторадио [2016-2017, HDTVRip] торрент без регистрации

Статистика раздачи
Размер:  2,91 GB   |    Скачан:  42 раза
Сидов:  1  [  0 KB/s  ]  
 
 
 
Автор Сообщение

Marsianka

[] 

Информация о фильме
Оригинальное название: Новогодняя дискотека 80-х от Авторадио
Год выпуска: 2016-2017
Жанр: Концерт, диско
Исполнитель: Zodiac, Весёлые ребята, Riccihi E Poveri, С.С. Catch, Dschinghis Khan, Олег Газманов, София Ротару, Toto Cutugno, Юрий Шатунов, Белорусские Песняры, Sandra, Юрий Антонов, Secret Service, Гр. Ялла, UB40 Feat. Ali Campbell, Eddy Huntington

О концерте:
26 ноября в московском спорткомплексе «Олимпийский» - 15-й международный музыкальный фестиваль «Авторадио» «Дискотека 80-х». Организаторы шоу подготовили уникальную программу с участием любимых исполнителей. На сцене такие звезды как С.С. Catch, Сандра, Dschinghis Khan, Ricchi e Poveri, Тото Кутуньо, Secret Service. Из отечественных - Олег Газманов, Юрий Шатунов, «Веселые ребята», ветераны советской сцены Лев Лещенко, Юрий Антонов, группы Zodiac, «Ялла», «Песняры». Один из создателей проекта, руководитель «Авторадио» Юрий Костин поведал накануне шоу: "Специально притягивать за уши какие-то идеи к нашему 15-летию мы не стали. Но, во-первых, появление UB 40 вместе с Али Кэмпбеллом уже немало. Мы лет пять их обхаживали, обсуждали с ними возможность участия в «Дискотеке». Во-вторых, у нас собрался показательный состав звезд бывшего СССР. И они как-то легко и с радостью соглашались на наше предложение. Такого давно не встречал. Большинство этих артистов находятся сейчас достаточно далеко от России, занимаются своими делами, но тем не менее готовы поработать с нами. В том числе София Михайловна Ротару. Для меня это очень ценный факт". Среди тех, по кому уже успели соскучиться зрители, певица Сандра. По ее словам, каждое участие в «Дискотеке 80-х» становится для нее незабываемым событием: "Самая важная для меня вещь - конечно, зрители. Здесь они просто потрясающие! Принимают с таким теплом, что не хочется уходить со сцены. Нигде в мире меня так хорошо не встречают". Не менее яркие эмоции испытывает и «рекордсменка» фестиваля С.С. Catch, которая поет на «Дискотеке 80-х» уже в 11-й раз.
01."Zodiac"
02. Гр. "Весёлые ребята" - Попурри
03."Riccihi E Poveri" - Voulez Vous Danser
04. "Riccihi E Poveri" - Come Vorrel
05. "С.С. Catch" - Anniversary Mega Mix
06. "С.С. Catch" - I Can Lose My Heart Tonight
07. "С.С. Catch" - Heaven and Hell
08. "Dschinghis Khan" - Dschinghis Khan
09. "Dschinghis Khan" - Moskau
10. "Dschinghis Khan" - Rocking Son of Dschinghis Khan
11. "Олег Газманов и Гр. Эскадрон" - Морячка
12. "Олег Газманов и Гр. Эскадрон" - Единственная
13. "Олег Газманов и Гр. Эскадрон" - Сделан в СССР
14. "София Ротару" - Червона Рута
15. "София Ротару" - Лаванда
16. "София Ротару" - Луна - Луна
17. "Toto Cutugno" - Amore No
18. "Toto Cutugno" - L'ete indien
19. "Toto Cutugno" - L 'Italiano
20. "Юрий Шатунов" - Белые розы
21. "Юрий Шатунов" - Розовый вечер
22. "Юрий Шатунов" - Детство
23. "Юрий Шатунов" - Седая ночь
24. "Белорусские Песняры" - Беловежская пуща
25. "Белорусские Песняры" - Вологда
26. "Sandra" - Heaven Can Wait
27. "Sandra" - Secret Land
28. "Sandra" - Maria Magdalena
29. "Юрий Антонов" - Если любишь ты
30. "Юрий Антонов" - Я вспоминаю
31. "Юрий Антонов" - Не забывай
32. "Secret Service" - 10 O'Clock Postman
33. "Secret Service" - Now I Want You
34. "Secret Service" - Flash In tne Hight
35. "Secret Service" - LA Goodbye
36. "Лев Лещенко и Леонид Руденко" - Соловьиная роща
37. "Лев Лещенко и Леонид Руденко" - Прощай
38. "Гр. Ялла" - Последняя поэма
39. "Гр. Ялла" - Учкудук
40. "UB40 Feat. Ali Campbell" - Red Red Wine
41. "Eddy Huntington" - USSR
Страна: Россия
Студия: «НТВ HD»
Продолжительность: 2 x ~ 01:40:00
Перевод: Не требуется

Файл
Формат: avi
Качество: HDTVRip
Видео: XviD build 73, 704x400 (16:9), 25.000 fps, ~ 1900 Kbps (~ 0.270 bit/pixel)
Звук: 48.0 kHz, MP3, 2/0 ch, 192 kbps
Язык: Русский
Субтитры: нет
General
Complete name : Diskoteka.80's.2017.XviD.HDTVRip.GeneralFilmDiskoteka.80's.01.avi
Format : AVI
Format/Info : Audio Video Interleave
File size : 1.45 GiB
Duration : 1h 37mn
Overall bit rate : 2 122 Kbps
Writing application : VirtualDubMod 1.5.10.3 | www.virtualdub-fr.org || (build 2550/release)
Writing library : VirtualDubMod build 2550/release

Video
ID : 0
Format : MPEG-4 Visual
Format profile : Advanced Simple@L5
Format settings, BVOP : 1
Format settings, QPel : No
Format settings, GMC : No warppoints
Format settings, Matrix : Custom
Codec ID : XVID
Codec ID/Hint : XviD
Duration : 1h 37mn
Bit rate : 1 921 Kbps
Width : 704 pixels
Height : 400 pixels
Display aspect ratio : 16:9
Frame rate : 25.000 fps
Color space : YUV
Chroma subsampling : 4:2:0
Bit depth : 8 bits
Scan type : Progressive
Compression mode : Lossy
Bits/(Pixel*Frame) : 0.273
Stream size : 1.31 GiB (90%)
Writing library : XviD 73

Audio
ID : 1
Format : MPEG Audio
Format version : Version 1
Format profile : Layer 3
Codec ID : 55
Codec ID/Hint : MP3
Duration : 1h 37mn
Bit rate mode : Constant
Bit rate : 192 Kbps
Channel(s) : 2 channels
Sampling rate : 48.0 KHz
Compression mode : Lossy
Stream size : 135 MiB (9%)
Alignment : Aligned on interleaves
Interleave, duration : 40 ms (1.00 video frame)
Interleave, preload duratio : 504 ms
Writing library : LAME3.99r
Encoding settings : -m s -V 4 -q 0 -lowpass 18.6 -b 192
Релиз от:



Скачать Новогодняя.дискотека.80-х.от.Авторадио.[2016-2017.HDTVRip].torrent без регистрации
Золото ЗОЛОТАЯ РАЗДАЧА! СКАЧАННОЕ НЕ ЗАСЧИТЫВАЕТСЯ! Золото
Дата: Зарегистрирован   [ Тип: внутренний ] Как тут cкачать?
MAGNET ссылка
MAGNET ссылка


Скачать .torrent

30 KB

Статус: проверено DHT
Скачан: торрент - 42 раз, раздача полностью - 71 раз
Размер: 2,91 GB
Оценка:  - (Голосов: 0)
Поблагодарили: 0
Поделиться ссылкой на эту раздачу с друзьями:
В контактеFacebookОдноклассникиTwitterLivejournalМой МирLiveinternet
 

 
Показать сообщения:    


Вы не можете начинать темы
Вы не можете отвечать на сообщения
Вы не можете редактировать свои сообщения
Вы не можете удалять свои сообщения
Вы не можете голосовать в опросах
Вы не можете прикреплять файлы к сообщениям
Вы можете скачивать файлы