Loading...
Error

Скачать Фортитьюд / Fortitude (02х01-07 из 12) (Сэм Миллер и др.) [2015, драма, триллер, детектив, WEB-DLRip] [720p] [MVO (RusFilm)] торрент без регистрации

Статистика раздачи
Размер:  5,46 GB   |    Скачан:  20 раз
Сидов:  1  [  0 KB/s  ]  

 
 
 
Автор Сообщение

МихаНЕзатор

[] 

Информация о фильме
Название: Фортитьюд
Оригинальное название: Fortitude
Год выхода: 2017
Жанр: драма, триллер, детектив
Режиссер: Сэм Миллер, Хетти Макдональд, Ник Харран, Ричард Лэкстон

В ролях: Ричард Дормер, Софи Гробёль, Майкл Гэмбон, Джонни Харрис, Николас Пиннок, Вероника Эчеги, Джессика Рэйн, Сиенна Гиллори, Бьерн Хлинур, Стэнли Туччи, Люк Тредэвэй, Кристофер Экклстон, Миа Нильсен-Ексен, Аарон МакКаскер, Чипо Чанг, Александра Моэн, Джессика Ганнинг, Фиби Николлс, Даррен Бойд, Эмиль Хостина, Шарлотта Пайк, Майкл Обиора, Ли Николас Харрис

О фильме: Фортитьюд - маленькое поселение в самой Арктике. Здешним жителям не свойственны проблемы других городов мира. Тут люди заботятся совсем об ином, чем где бы то ни было, да и люди сюда попадают совсем не простые, проверенные временем ученые и любители приключений ради науки. Из-за полного отсутствия преступности Фортитьюд считается самым безопасным местом на земле. Но, однажды, в городе находят тело убитого британского ученого профессора Чарли Стоддарта (Кристофер Экклстон). Амбициозные планы губернатора острова Хильдур Одегард (Софи Гробёль) по превращению шахтерского городка в преуспевающий туристический центр оказываются под угрозой. Местный шериф Дэн Андерссен (Ричард Дормер) и, командированный в город, детектив-инспектор лондонской полиции Юджин Мортон (Стэнли Туччи) приступают к расследованию. И чем дальше заходит расследование, тем шире становится список подозреваемых, а поведение шерифа и детектива – все более странным и заставляющим их все меньше доверять друг другу. Кто же совершил убийство в самом безопасном месте на Земле?



ПРИСУТСТВУЕТ РЕКЛАМА РЕЛИЗ ГРУППЫ

Релиз группа: RusFilm

Страна: Великобритания
Студия: Fifty Fathoms Productions, Sky Atlantic, Tiger Aspect Productions
Продолжительность: ~ 00:48:00
Перевод: Любительский (многоголосый)RusFilm
Субтитры: Отсутствуют

Роли озвучивали: Константин Федосеев, Дмитрий Рыбин, Андрей Юрченко, Анастасия Гайдаржи, Нана Саркисян
Перевод: Луиза Петрович, Андрей Соловей, Руслан Раскопин
Звукорежиссер: Александр Хохлов
Сведение и монтаж: Руслан Раскопин


Файл
Формат: MKV
Качество: HDTV (720p)
Видео: MPEG-4 AVC, ~ 2500 Кбит/с, 1280x720
Аудио: 48 kHz, AC3 Dolby Digital, 2/0 (L,R) ch, ~192 kbps

АНОНСЫ ПОПУЛЯРНЫХ РАЗДАЧ


Торрент обновлён, добавлена 7-я серия!

Format : Matroska
Format version : Version 4 / Version 2
File size : 764 MiB
Duration : 44mn 24s
Overall bit rate : 2 406 Kbps
Encoded date : UTC 2017-02-09 17:28:18
Writing application : mkvmerge v6.0.0 ('Coming Up For Air') built on Jan 20 2013 09:52:00
Writing library : libebml v1.3.0 + libmatroska v1.4.0

Video
ID : 1
Format : AVC
Format/Info : Advanced Video Codec
Format profile : Main@L3.1
Format settings, CABAC : Yes
Format settings, ReFrames : 4 frames
Codec ID : V_MPEG4/ISO/AVC
Duration : 44mn 24s
Bit rate : 2 500 Kbps
Width : 1 280 pixels
Height : 720 pixels
Display aspect ratio : 16:9
Frame rate mode : Constant
Frame rate : 25.000 fps
Color space : YUV
Chroma subsampling : 4:2:0
Bit depth : 8 bits
Scan type : Progressive
Bits/(Pixel*Frame) : 0.094
Stream size : 688 MiB (90%)
Writing library : x264 core 146
Encoding settings : cabac=1 / ref=1 / deblock=1:0:0 / analyse=0x1:0x1 / me=dia / subme=1 / psy=1 / psy_rd=1.00:0.00 / mixed_ref=0 / me_range=16 / chroma_me=1 / trellis=0 / 8x8dct=0 / cqm=0 / deadzone=21,11 / fast_pskip=1 / chroma_qp_offset=0 / threads=3 / lookahead_threads=1 / sliced_threads=0 / nr=0 / decimate=1 / interlaced=0 / bluray_compat=0 / constrained_intra=0 / bframes=3 / b_pyramid=2 / b_adapt=1 / b_bias=0 / direct=1 / weightb=1 / open_gop=0 / weightp=1 / keyint=250 / keyint_min=25 / scenecut=40 / intra_refresh=0 / rc=crf / mbtree=0 / crf=23.0 / qcomp=0.60 / qpmin=0 / qpmax=69 / qpstep=4 / ip_ratio=1.40 / pb_ratio=1.30 / aq=1:1.00
Language : English
Default : Yes
Forced : No

Audio
ID : 2
Format : AC-3
Format/Info : Audio Coding 3
Mode extension : CM (complete main)
Format settings, Endianness : Big
Codec ID : A_AC3
Duration : 44mn 24s
Bit rate mode : Constant
Bit rate : 192 Kbps
Channel(s) : 2 channels
Channel positions : Front: L R
Sampling rate : 48.0 KHz
Frame rate : 31.250 fps (1536 spf)
Compression mode : Lossy
Delay relative to video : -5ms
Stream size : 61.0 MiB (8%)
Language : English
Default : Yes
Forced : No
Внимание! Раздача ведётся путём добавления новых серий; при каждом добавлении создаётся новый торрент. Чтобы начать докачку новой серии, пользователям необходимо сделать следующее:
(1) остановить скачивание,
(2) удалить старый торрент у себя из клиента (старые серии удалять не надо),
(3) скачать новый торрент и запустить его у себя в клиенте вместо старого, при этом указать клиенту путь в старую папку куда и должно происходить скачивание новых серий.

Ваш клиент при этом должен произвести хеширование (проверку) старой папки (если не производит сам - помогите ему сделать это), и будет докачивать только те серии которых у вас ещё нет. Старые серии при этом не удаляются, а продолжают раздаваться!

Eсли вы уже удалили старые серии, то предотвратить повторную закачку старых серий можно, отжав галочку в соответсвующих местах при запуске нового торрента. По возможности, желательно не удалять старые серии как можно дольше чтобы релизёр не столько продолжал раздавать старые серии, а смог сконцентрироваться на новых.




Скачать Фортитьюд.Fortitude.(02х01-07.из.12).(Сэм.Миллер.и.др.).[2015.драма.триллер.детектив.WEB-DLRip].[720p].[MVO.(RusFilm)].torrent без регистрации
Золото ЗОЛОТАЯ РАЗДАЧА! СКАЧАННОЕ НЕ ЗАСЧИТЫВАЕТСЯ! Золото
Дата: Зарегистрирован   [ Тип: внутренний ] Как тут cкачать?
MAGNET ссылка
MAGNET ссылка


Скачать .torrent

28 KB

Статус: проверено DHT
Скачан: торрент - 20 раз, раздача полностью - 0 раз
Размер: 5,46 GB
Оценка:  5 (Голосов: 1)
Поблагодарили: 1
Поделиться ссылкой на эту раздачу с друзьями:
В контактеFacebookОдноклассникиTwitterLivejournalМой МирLiveinternet
 

 
Показать сообщения:    


Вы не можете начинать темы
Вы не можете отвечать на сообщения
Вы не можете редактировать свои сообщения
Вы не можете удалять свои сообщения
Вы не можете голосовать в опросах
Вы не можете прикреплять файлы к сообщениям
Вы можете скачивать файлы