Loading...
Error

Скачать Призрак матери / Ghost Mother (Тарасорн Сирипарнварапорн / Tharathorn Siripanwaraporn) [2007, ужасы, мистика, DVDRip] [VO] торрент без регистрации

 
Статистика раздачи
Размер:  1,46 GB   |    Скачан:  109 раз
Сидов:  1  [  0 KB/s  ]  
 
Автор Сообщение

leon030982

[] 

Призрак матери / Ghost Mother
Страна: Таиланд
Жанр: ужасы, мистика
Год выпуска: 2007
Продолжительность: 01:24:00
Перевод: Любительский (двухголосый закадровый) den904, DeadSno
Перевод на русский: DeadSno
Cубтитры: нет
Режиссер: Тарасорн Сирипарнварапорн / Tharathorn Siripanwaraporn
В ролях: Патчарапа Чайчура
Сана Суттикамон
Фокус Джиракул
Натниша Цердчообуфакари

Описание: После того, как мать сбежала со своим новым мужем за границу, а отец погиб, убитый мафией, Нан становится единственным близким человеком для своих трех племянников. Чтобы содержать их, она продает соевое молоко и жареную сдобу, но денег не хватает и она начинает подрабатывать швеёй. А в это время, мафия ищет свои пропавшие наркотики...и в своих поисках они приходят к Нан, чтобы узнать, не знает ли она, где спрятан их товар. В итоге, девушка жестоко убита, но ее дух неспокоен, поскольку она не может бросить своих племенников без заботы и защиты...а убийц без наказания.
Сэмпл: http://multi-up.com/709759
Качество видео: DVDRip
Формат видео: AVI
Видео: XviD, 720x400 (1.80:1), 29.970 fps, 2028 kbps avg, 0.23 bit/pixel
Аудио: Русский, 48 KHz, Dolby Digital, 6 ch, 448 kbps
Format : AVI
Format/Info : Audio Video Interleave
File size : 1.46 GiB
Duration : 1h 24mn
Overall bit rate : 2 483 Kbps
Writing application : VirtualDubMod 1.5.4.1 (build 2178/release)
Writing library : VirtualDubMod build 2178/release
Video
ID : 0
Format : MPEG-4 Visual
Format profile : Advanced Simple@L5
Format settings, BVOP : 1
Format settings, QPel : No
Format settings, GMC : No warppoints
Format settings, Matrix : Custom
Codec ID : XVID
Codec ID/Hint : XviD
Duration : 1h 24mn
Bit rate : 2 027 Kbps
Width : 720 pixels
Height : 400 pixels
Display aspect ratio : 16:9
Frame rate : 29.970 fps
Color space : YUV
Chroma subsampling : 4:2:0
Bit depth : 8 bits
Scan type : Progressive
Compression mode : Lossy
Bits/(Pixel*Frame) : 0.235
Stream size : 1.19 GiB (82%)
Writing library : XviD 1.0.2 (UTC 2004-08-29)
Audio
ID : 1
Format : AC-3
Format/Info : Audio Coding 3
Mode extension : CM (complete main)
Format settings, Endianness : Big
Codec ID : 2000
Duration : 1h 24mn
Bit rate mode : Constant
Bit rate : 448 Kbps
Channel(s) : 6 channels
Channel positions : Front: L C R, Side: L R, LFE
Sampling rate : 48.0 KHz
Bit depth : 16 bits
Compression mode : Lossy
Stream size : 269 MiB (18%)
Alignment : Split accross interleaves
Interleave, duration : 96 ms (2.88 video frames)
Interleave, preload duration : 96 ms
Language : Russian
Релиз группы:



Скачать Призрак.матери.Ghost.Mother.(Тарасорн.Сирипарнварапорн.Tharathorn.Siripanwaraporn).[2007.ужасы.мистика.DVDRip].[VO].torrent без регистрации
Золото ЗОЛОТАЯ РАЗДАЧА! СКАЧАННОЕ НЕ ЗАСЧИТЫВАЕТСЯ! Золото
Дата: Зарегистрирован   [ Тип: внутренний ] Как тут cкачать?
MAGNET ссылка
MAGNET ссылка


Скачать .torrent

15 KB

Статус: проверено DHT
Скачан: торрент - 109 раз, раздача полностью - 1 раз
Размер: 1,46 GB
Оценка:  - (Голосов: 0)
Поблагодарили: 1
Поделиться ссылкой на эту раздачу с друзьями:
В контактеFacebookОдноклассникиTwitterLivejournalМой МирLiveinternet
 

 
Показать сообщения:    


Вы не можете начинать темы
Вы не можете отвечать на сообщения
Вы не можете редактировать свои сообщения
Вы не можете удалять свои сообщения
Вы не можете голосовать в опросах
Вы не можете прикреплять файлы к сообщениям
Вы можете скачивать файлы