Loading...
Error

Скачать Табу / Taboo (01х01-02 из 08) (Андерс Энгстрем, Кристоффер Нюхольм) [2017, драма, приключения, HDTV] [720p] [DVO (NEON Studio)] торрент без регистрации

Статистика раздачи
Размер:  2,49 GB   |    Скачан:  5 раз
Сидов:  3  [  0 KB/s  ]   Личеров:  4  [  0 KB/s  ]  
 
 
 
Автор Сообщение

МихаНЕзатор

[] 

Название: Табу
Оригинальное название: Taboo
Год выхода: 2017
Жанр: драма, приключения
Режиссер: Андерс Энгстрем, Кристоффер Нюхольм

В ролях: Том Харди, Лео Билл, Уна Чаплин, Ричард Диксон, Дэвид Хейман, Майкл Келли, Дэнни Лигаири, Джонатан Прайс, Рой Торн, Скрубиус Пип и др.

О сериале: Считающийся погибшим, авантюрист и искатель приключений Джеймс Кезиах Делейни вновь в 1814 году, после 10 лет путешествий в Африке, появляется в Лондоне, стремясь отомстить за смерть своего отца. Делейни возвращается, чтобы обнаружить, что ему было оставлено отцом таинственное наследство и строит свою собственную корабельную империю в начале 1800-х годов, играя в опасную игру между двумя воюющими странами - Англией и Америкой...

Релиз группа:

Страна: США
Продолжительность: ~00:55:00
Перевод: Любительский (двухголосый) NEON Studio
Субтитры: Отсутствуют
Присутствует логотип релиз группы

Файл
Формат: MKV
Качество: HDTV (720p)
Видео: MPEG-4 AVC, ~ 3000 Кбит/с, 1280x720
Аудио: 48 kHz, AC3 Dolby Digital, 2/0 (L,R) ch, ~192 kbps

АНОНСЫ ПОПУЛЯРНЫХ РАЗДАЧ


Торрент обновлён, добавлена 2-я серия!
Формат : Matroska
Версия формата : Version 4 / Version 2
Размер файла : 1,22 Гбайт
Продолжительность : 55 м. 9 с.
Общий поток : 3169 Кбит/сек
Дата кодирования : UTC 2017-01-11 13:25:25
Программа кодирования : mkvmerge v9.7.1 ('Pandemonium') 64bit
Библиотека кодирования : libebml v1.3.4 + libmatroska v1.4.5

Видео
Идентификатор : 1
Формат : AVC
Формат/Информация : Advanced Video Codec
Профиль формата : Main@L5.1
Параметр CABAC формата : Да
Параметр ReFrames формата : 1 кадр
Идентификатор кодека : V_MPEG4/ISO/AVC
Продолжительность : 55 м. 9 с.
Битрейт : 2975 Кбит/сек
Ширина : 1280 пикселей
Высота : 720 пикселей
Соотношение сторон : 16:9
Режим частоты кадров : Постоянный
Частота кадров : 25,000 кадров/сек
Цветовое пространство : YUV
Субдискретизация насыщенности : 4:2:0
Битовая глубина : 8 бит
Тип развёртки : Прогрессивная
Бит/(Пиксели*Кадры) : 0.129
Размер потока : 1,15 Гбайт (94%)
Default : Да
Forced : Нет

Аудио
Идентификатор : 2
Формат : AC-3
Формат/Информация : Audio Coding 3
Расширение режима : CM (complete main)
Параметр Endianness формата : Big
Идентификатор кодека : A_AC3
Продолжительность : 55 м. 9 с.
Вид битрейта : Постоянный
Битрейт : 192 Кбит/сек
Каналы : 2 канала
Расположение каналов : Front: L R
Частота : 48,0 КГц
Частота кадров : 31,250 кадров/сек (1536 spf)
Битовая глубина : 16 бит
Метод сжатия : С потерями
Размер потока : 75,7 Мбайт (6%)
Default : Да
Forced : Нет
Внимание! Раздача ведётся путём добавления новых серий; при каждом добавлении создаётся новый торрент. Чтобы начать докачку новой серии, пользователям необходимо сделать следующее:
(1) остановить скачивание,
(2) удалить старый торрент у себя из клиента (старые серии удалять не надо),
(3) скачать новый торрент и запустить его у себя в клиенте вместо старого, при этом указать клиенту путь в старую папку куда и должно происходить скачивание новых серий.

Ваш клиент при этом должен произвести хеширование (проверку) старой папки (если не производит сам - помогите ему сделать это), и будет докачивать только те серии которых у вас ещё нет. Старые серии при этом не удаляются, а продолжают раздаваться!

Eсли вы уже удалили старые серии, то предотвратить повторную закачку старых серий можно, отжав галочку в соответсвующих местах при запуске нового торрента. По возможности, желательно не удалять старые серии как можно дольше чтобы релизёр не столько продолжал раздавать старые серии, а смог сконцентрироваться на новых.



Скачать Табу.Taboo.(01х01-02.из.08).(Андерс.Энгстрем.Кристоффер.Нюхольм).[2017.драма.приключения.HDTV].[720p].[DVO.(NEON.Studio)].torrent без регистрации
Золото ЗОЛОТАЯ РАЗДАЧА! СКАЧАННОЕ НЕ ЗАСЧИТЫВАЕТСЯ! Золото
Дата: Зарегистрирован   [ Тип: внешний ] Как тут cкачать?
MAGNET ссылка
MAGNET ссылка


Скачать .torrent

14 KB

Статус: проверено DHT
Скачан: торрент - 5 раз, раздача полностью - 0 раз
Размер: 2,49 GB
Оценка:  - (Голосов: 0)
Поблагодарили: 0
Поделиться ссылкой на эту раздачу с друзьями:
В контактеFacebookОдноклассникиTwitterLivejournalМой МирLiveinternet
 

 
Показать сообщения:    


Вы не можете начинать темы
Вы не можете отвечать на сообщения
Вы не можете редактировать свои сообщения
Вы не можете удалять свои сообщения
Вы не можете голосовать в опросах
Вы не можете прикреплять файлы к сообщениям
Вы можете скачивать файлы