Loading...
Error

Скачать Рафтеры / Raftáci (Карел Янак / Karel Janak) [2006, Комедия, DVDRip] [MVO] торрент без регистрации

 
Статистика раздачи
Размер:  1,46 GB   |    Скачан:  126 раз
Сидов:  1  [  0 KB/s  ]  
 
Автор Сообщение

leon030982

[] 

Рафтеры / Raftáci
Страна: Чехия
Жанр: Комедия
Год выпуска: 2006
Продолжительность: 01:43:55
Перевод: Профессиональный (многоголосый закадровый) [ТНТ]
Cубтитры: нет
Режиссер: Карел Янак / Karel Janak
В ролях: Войцех Котек, Иржи Мадл, Вероника Фрейманова, Павла Томицова, Милан Штайндлер, Олдрич Навратил, Матыаш Валента, Иржина Ираскова

Описание: Каждому знаком кошмар подростка, отправляющегося на каникулы с родителями. А когда этот кошмар превращается в реальность из-за неудачного совпадения, это особенно раздражает. Однако Дэни и Филипп не сдаются. Во время последних каникул ребята становятся участниками событий, при которых родителям определенно не следовало бы присутствовать. Ведь когда Дэни пообещал Филипу, что поможет ему найти девушку, он и понятия не имел, сколько препятствий возникнет на их пути…



Сэмпл: http://multi-up.com/709757
Качество видео: DVDRip
Формат видео: AVI
Видео: 720x400 (1.80:1), 25 fps, XviD build 50, 1815 kbps avg, 0.25 bit/pixel
Аудио: Russian: 48 kHz, AC3 Dolby Digital, 2/0 (L,R) ch, 192.00 kbps avg
General
Complete name : E:\Мои раздачи\Raftaci_RG_All_Films.avi
Format : AVI
Format/Info : Audio Video Interleave
File size : 1.46 GiB
Duration : 1h 43mn
Overall bit rate : 2 017 Kbps
Writing application : VirtualDubMod 1.5.10.3 | www.virtualdub-fr.org || (build 2550/release)
Writing library : VirtualDubMod build 2550/release
Video
ID : 0
Format : MPEG-4 Visual
Format profile : Advanced Simple@L5
Format settings, BVOP : Yes
Format settings, QPel : No
Format settings, GMC : No warppoints
Format settings, Matrix : Custom
Codec ID : XVID
Codec ID/Hint : XviD
Duration : 1h 43mn
Bit rate : 1 816 Kbps
Width : 720 pixels
Height : 400 pixels
Display aspect ratio : 16:9
Frame rate : 25.000 fps
Color space : YUV
Chroma subsampling : 4:2:0
Bit depth : 8 bits
Scan type : Progressive
Compression mode : Lossy
Bits/(Pixel*Frame) : 0.252
Stream size : 1.32 GiB (90%)
Writing library : XviD 1.2.1 (UTC 2008-12-04)
Audio
ID : 1
Format : AC-3
Format/Info : Audio Coding 3
Mode extension : CM (complete main)
Codec ID : 2000
Duration : 1h 43mn
Bit rate mode : Constant
Bit rate : 192 Kbps
Channel(s) : 2 channels
Channel positions : Front: L R
Sampling rate : 48.0 KHz
Bit depth : 16 bits
Compression mode : Lossy
Stream size : 143 MiB (10%)
Alignment : Split accross interleaves
Interleave, duration : 40 ms (1.00 video frame)
Interleave, preload duration : 500 ms



Скачать Рафтеры.Raftáci.(Карел.Янак.Karel.Janak).[2006.Комедия.DVDRip].[MVO].torrent без регистрации
Золото ЗОЛОТАЯ РАЗДАЧА! СКАЧАННОЕ НЕ ЗАСЧИТЫВАЕТСЯ! Золото
Дата: Зарегистрирован   [ Тип: внутренний ] Как тут cкачать?
MAGNET ссылка
MAGNET ссылка


Скачать .torrent

15 KB

Статус: проверено DHT
Скачан: торрент - 126 раз, раздача полностью - 19 раз
Размер: 1,46 GB
Оценка:  - (Голосов: 0)
Поблагодарили: 1
Поделиться ссылкой на эту раздачу с друзьями:
В контактеFacebookОдноклассникиTwitterLivejournalМой МирLiveinternet
 

 
Показать сообщения:    


Вы не можете начинать темы
Вы не можете отвечать на сообщения
Вы не можете редактировать свои сообщения
Вы не можете удалять свои сообщения
Вы не можете голосовать в опросах
Вы не можете прикреплять файлы к сообщениям
Вы можете скачивать файлы