Loading...
Error

Скачать Ведьма из Блэр: Новая глава / Blair Witch (Адам Вингард) [2016, ужасы, триллер, BDRip] [1080p] [Dub] [Лицензия] [iTunes] [R.G. Goldenshara] торрент без регистрации

Статистика раздачи
Размер:  4,37 GB   |    Скачан:  123 раза
Сидов:  1  [  0 KB/s  ]  
 
 
 
Автор Сообщение

sobmaster

[] 

Ведьма из Блэр: Новая глава
Blair Witch


Год выпуска: 2016

Страна: США
Выпущено: Lionsgate, Room 101, Snoot Entertainment, Vertigo Entertainment
Слоган: «There's something evil hiding in the woods»
Жанр: ужасы, триллер

Продолжительность: 01:29:11
Перевод : Профессиональный (полное дублирование) (iTunes)

Режиссер: Адам Вингард
Сценарий: Саймон Баррет
Продюсер: Кит Калдер, Рой Ли, Стивен Шнайдер
Оператор: Роберт Баумгартнер
Композитор : Адам Вингард
Художник: Томас С. Хэммок, Шила Хейли, Катерина Стано
Монтаж: Луис Циоффи

В ролях:


Джеймс Аллен МакКьюн (James), Калли Эрнандес (Lisa Arlington), Корбин Рейд (Ashley), Брэндон Скотт (Peter), Уэс Робинсон (Lane), Вэлори Керри (Talia)

Роли дублировали: Иван Забелин (James), Анна Котова (Lisa Arlington), Юлия Волкова (Ashley), Иван Жарков (Peter), Антон Колесников (Lane), Татьяна Ларичева (Talia)

Бюджет: $5 000 000
Сборы в США: $20 777 061
Сборы в мире: $45 163 532
Зрители: Россия 242.3 тыс.

Мировая премьера: 11 сентября 2016
Премьера (РФ): 6 октября 2016, «Вольга»
MPAA: - Лицам до 17 лет обязательно присутствие взрослого

Описание: После обнаружения загадочной видеозаписи у Джеймса появляется надежда найти свою пропавшую сестру. Вместе с группой друзей он решается отправиться в лес Блэк Хиллз, известный по легенде о ведьме из Блэр. Но никакая самая страшная легенда не сравнится с тем кошмаром, который ждет их в реальности.



Качество: BDRip 1080р
Контейнер: MKV
Видео: AVC, 1920x1036 (1.85:1), 6632 kbps , 23,976 fps, 0.139 bpp
Аудио: русский /; AC3 /; 5,1 /; 48 kHz /; 384 kbps /; 16 bit; ||
Субтитры 1: русские (Full [Matveev])
Субтитры 2: английские (Full)
Субтитры 3: английские (SDH)
Навигация по главам: есть


АНОНСЫ ПОПУЛЯРНЫХ РАЗДАЧ

Код:

General
Unique ID                                : 241748185182391769320791469430327110377 (0xB5DF01C32D21979597701501F7DA6AE9)
Complete name                            : E:\Мои рипы\Ведьма из Блэр.Новая глава.2016.BDRip.1080p.DUB.mkv
Format                                   : Matroska
Format version                           : Version 4 / Version 2
File size                                : 4.37 GiB
Duration                                 : 1h 29mn
Overall bit rate                         : 7 019 Kbps
Movie name                               : Blair.Witch.2016 ***селезень***
Encoded date                             : UTC 2017-01-20 17:29:27
Writing application                      : mkvmerge v6.8.0 ('Theme for Great Cities') 32bit built on Mar  2 2014 21:27:07
Writing library                          : libebml v1.3.0 + libmatroska v1.4.1

Video
ID                                       : 1
Format                                   : AVC
Format/Info                              : Advanced Video Codec
Format profile                           : High@L4.1
Format settings, CABAC                   : Yes
Format settings, ReFrames                : 4 frames
Codec ID                                 : V_MPEG4/ISO/AVC
Duration                                 : 1h 29mn
Bit rate                                 : 6 632 Kbps
Width                                    : 1 920 pixels
Height                                   : 1 036 pixels
Display aspect ratio                     : 1.85:1
Frame rate mode                          : Constant
Frame rate                               : 23.976 fps
Color space                              : YUV
Chroma subsampling                       : 4:2:0
Bit depth                                : 8 bits
Scan type                                : Progressive
Bits/(Pixel*Frame)                       : 0.139
Stream size                              : 4.05 GiB (93%)
Writing library                          : x264 core 146 r2538 121396c
Encoding settings                        : cabac=1 / ref=4 / deblock=1:-3:-3 / analyse=0x3:0x113 / me=umh / subme=11 / psy=1 / psy_rd=1.00:0.15 / mixed_ref=1 / me_range=48 / chroma_me=1 / trellis=2 / 8x8dct=1 / cqm=0 / deadzone=21,11 / fast_pskip=0 / chroma_qp_offset=-4 / threads=6 / lookahead_threads=1 / sliced_threads=0 / nr=0 / decimate=1 / interlaced=0 / bluray_compat=0 / constrained_intra=0 / bframes=8 / b_pyramid=2 / b_adapt=2 / b_bias=0 / direct=2 / weightb=1 / open_gop=0 / weightp=2 / keyint=250 / keyint_min=23 / scenecut=40 / intra_refresh=0 / rc_lookahead=50 / rc=2pass / mbtree=0 / bitrate=6632 / ratetol=1.0 / qcomp=0.60 / qpmin=0 / qpmax=69 / qpstep=4 / cplxblur=20.0 / qblur=0.5 / vbv_maxrate=14000 / vbv_bufsize=14000 / nal_hrd=none / filler=0 / ip_ratio=1.40 / pb_ratio=1.30 / aq=2:1.00
Language                                 : English
Default                                  : Yes
Forced                                   : No
Color primaries                          : Generic film
Matrix coefficients                      : YCgCo

Audio
ID                                       : 2
Format                                   : AC-3
Format/Info                              : Audio Coding 3
Mode extension                           : CM (complete main)
Format settings, Endianness              : Big
Codec ID                                 : A_AC3
Duration                                 : 1h 29mn
Bit rate mode                            : Constant
Bit rate                                 : 384 Kbps
Channel(s)                               : 6 channels
Channel positions                        : Front: L C R, Side: L R, LFE
Sampling rate                            : 48.0 KHz
Bit depth                                : 16 bits
Compression mode                         : Lossy
Stream size                              : 245 MiB (5%)
Title                                    : Дубляж (iTunes)
Language                                 : Russian
Default                                  : Yes
Forced                                   : No

Text #1
ID                                       : 3
Format                                   : UTF-8
Codec ID                                 : S_TEXT/UTF8
Codec ID/Info                            : UTF-8 Plain Text
Title                                    : Full [Matveev]
Language                                 : Russian
Default                                  : No
Forced                                   : No

Text #2
ID                                       : 4
Format                                   : UTF-8
Codec ID                                 : S_TEXT/UTF8
Codec ID/Info                            : UTF-8 Plain Text
Title                                    : Full
Language                                 : English
Default                                  : No
Forced                                   : No

Text #3
ID                                       : 5
Format                                   : UTF-8
Codec ID                                 : S_TEXT/UTF8
Codec ID/Info                            : UTF-8 Plain Text
Title                                    : SDH
Language                                 : English
Default                                  : No
Forced                                   : No

Menu
00:00:00.000                             : en:Chapter 1
00:05:09.351                             : en:Chapter 2
00:08:24.337                             : en:Chapter 3
00:10:57.740                             : en:Chapter 4
00:16:17.268                             : en:Chapter 5
00:21:14.440                             : en:Chapter 6
00:29:41.279                             : en:Chapter 7
00:35:57.822                             : en:Chapter 8
00:40:35.433                             : en:Chapter 9
00:46:00.257                             : en:Chapter 10
00:52:30.647                             : en:Chapter 11
00:59:20.724                             : en:Chapter 12
01:04:41.794                             : en:Chapter 13
01:09:51.479                             : en:Chapter 14
01:15:52.339                             : en:Chapter 15
01:20:29.283                             : en:Chapter 16
Раздаю ночью с 1.00 до 7.00 до 5 скачавших. На раздачи не возвращаюсь.



Скачать Ведьма.из.Блэр.Новая.глава.Blair.Witch.(Адам.Вингард).[2016.ужасы.триллер.BDRip].[1080p].[Dub].[Лицензия].[iTunes].[R.G.Goldenshara].torrent без регистрации
Золото ЗОЛОТАЯ РАЗДАЧА! СКАЧАННОЕ НЕ ЗАСЧИТЫВАЕТСЯ! Золото
Дата: Зарегистрирован   [ Тип: внутренний ] Как тут cкачать?
MAGNET ссылка
MAGNET ссылка


Скачать .torrent

11 KB

Статус: проверено DHT
Скачан: торрент - 123 раз, раздача полностью - 158 раз
Размер: 4,37 GB
Оценка:  5 (Голосов: 7)
Поблагодарили: 20
Поделиться ссылкой на эту раздачу с друзьями:
В контактеFacebookОдноклассникиTwitterLivejournalМой МирLiveinternet
 

 
Показать сообщения:    


Вы не можете начинать темы
Вы не можете отвечать на сообщения
Вы не можете редактировать свои сообщения
Вы не можете удалять свои сообщения
Вы не можете голосовать в опросах
Вы не можете прикреплять файлы к сообщениям
Вы можете скачивать файлы