Loading...
Error

Скачать 28 панфиловцев (Ким Дружинин, Андрей Шальопа) [2016, Военный, драма, BDRip][1080p] [Оригинал Лицензия] [R.G. GoldenShara] торрент без регистрации

Статистика раздачи
Размер:  4,36 GB   |    Скачан:  293 раза
Сидов:  2  [  0 KB/s  ]  
 
 
 
Автор Сообщение

Magnetto83

[] 


28 панфиловцев


Год выпуска: 2016
Выпущено: Россия | 28 панфиловцев, Libyan Palette Studios
Жанр: Военный, драма
Продолжительность: 02:00:38
Перевод: Оригинальное озвучивание - Лицензия [Blu-Ray RUS]
Субтитры: Русские (Полные)
Навигация по главам: Сохранены оригинальные главы как на Blu-ray
Режиссер: Ким Дружинин, Андрей Шальопа

Слоган: «Велика Россия, а отступать некуда - поади Москва»

В ролях: Александр Устюгов, Яков Кучеревский, Азамат Нигманов, Олег Фёдоров, Алексей Морозов, Антон Кузнецов, Алексей Лонгин, Максим Белбородов, Дмитрий Мурашев, Виталий Коваленко

Описание: Осенью 1941-го года немецкие части, стоявшие возле Волоколамска, отделяло от Москвы каких-нибудь два часа по шоссе. Однако, на этом шоссе стояла 316-я стрелковая дивизия под командованием генерала И. В. Панфилова. Этот военачальник обладал настолько высоким авторитетом среди личного состава, что бойцы дивизии сами называли себя панфиловцами. А дивизию — панфиловской.



Возраст: 12+ (зрителям, достигшим 12 лет.)

Качество: BDRip 1080p
Формат: MKV
Видео кодек: H.264
Аудио кодек: AC3
Видео: 1920x804 (2.40:1), 4732 Кбит/с, 24 fps
Аудио: Русский Dolby Digital 5.1 (448kbps)


x264 [info]: frame I:1060 Avg QP:18.80 size:142754
x264 [info]: frame P:45198 Avg QP:21.86 size: 45736
x264 [info]: frame B:127466 Avg QP:23.61 size: 16147
x264 [info]: consecutive B-frames: 2.8% 8.8% 14.1% 24.4% 18.4% 21.5% 7.5% 1.2% 1.3%
x264 [total]: encoded 173724 frames, 0.93 fps, 4726.62 kb/s



General
Complete name : M:\Фильмы (Не удалять)\Мои Рипы (Выложенные)\28 Панфиловцев 2016 Original Rus BDRip 1080p.mkv
Format : Matroska
Format version : Version 2
File size : 4.36 GiB
Duration : 2h 0mn
Overall bit rate : 5 176 Kbps
Movie name : 28 Панфиловцев 2016 Original Rus BDRip 1080p By Magnetto 83
Encoded date : UTC 2017-02-01 09:53:45
Writing application : mkvmerge v5.2.0 ('I can't explain') built on Dec 18 2011 18:12:03
Writing library : libebml v1.2.3 + libmatroska v1.3.0

Video
ID : 1
Format : AVC
Format/Info : Advanced Video Codec
Format profile : High@L4.1
Format settings, CABAC : Yes
Format settings, ReFrames : 5 frames
Codec ID : V_MPEG4/ISO/AVC
Duration : 2h 0mn
Bit rate : 4 732 Kbps
Width : 1 920 pixels
Height : 804 pixels
Display aspect ratio : 2.40:1
Frame rate mode : Constant
Frame rate : 24.000 fps
Color space : YUV
Chroma subsampling : 4:2:0
Bit depth : 8 bits
Scan type : Progressive
Bits/(Pixel*Frame) : 0.128
Stream size : 3.90 GiB (89%)
Title : 28 Панфиловцев 2016 BDRip 1080p
Writing library : x264 core 146 r2538 121396c
Encoding settings : cabac=1 / ref=5 / deblock=1:-2:-2 / analyse=0x3:0x113 / me=umh / subme=10 / psy=1 / psy_rd=1.00:0.00 / mixed_ref=1 / me_range=32 / chroma_me=1 / trellis=2 / 8x8dct=1 / cqm=0 / deadzone=21,11 / fast_pskip=0 / chroma_qp_offset=-2 / threads=3 / lookahead_threads=1 / sliced_threads=0 / nr=0 / decimate=1 / interlaced=0 / bluray_compat=0 / constrained_intra=0 / bframes=8 / b_pyramid=2 / b_adapt=2 / b_bias=0 / direct=3 / weightb=1 / open_gop=0 / weightp=2 / keyint=250 / keyint_min=23 / scenecut=40 / intra_refresh=0 / rc=2pass / mbtree=0 / bitrate=4732 / ratetol=1.0 / qcomp=0.60 / qpmin=0 / qpmax=69 / qpstep=4 / cplxblur=20.0 / qblur=0.5 / ip_ratio=1.40 / pb_ratio=1.30 / aq=2:1.00
Language : Russian
Default : Yes
Forced : No

Audio
ID : 2
Format : AC-3
Format/Info : Audio Coding 3
Mode extension : CM (complete main)
Format settings, Endianness : Big
Codec ID : A_AC3
Duration : 2h 0mn
Bit rate mode : Constant
Bit rate : 448 Kbps
Channel(s) : 6 channels
Channel positions : Front: L C R, Side: L R, LFE
Sampling rate : 48.0 KHz
Compression mode : Lossy
Stream size : 387 MiB (9%)
Title : DD | 5.1 @ 448 kbps - Blu-ray RUS
Language : Russian
Default : Yes
Forced : No

Text
ID : 3
Format : UTF-8
Codec ID : S_TEXT/UTF8
Codec ID/Info : UTF-8 Plain Text
Title : Полные
Language : Russian
Default : No
Forced : No

Menu
00:00:00.000 : ru:Chapter 01
00:01:24.375 : ru:Chapter 02
00:11:59.208 : ru:Chapter 03
00:26:15.791 : ru:Chapter 04
00:38:43.625 : ru:Chapter 05
00:55:16.416 : ru:Chapter 06
01:12:21.333 : ru:Chapter 07
01:25:35.500 : ru:Chapter 08
01:38:52.333 : ru:Chapter 09







Скачать 28.панфиловцев.(Ким.Дружинин.Андрей.Шальопа).[2016.Военный.драма.BDRip][1080p].[Оригинал.Лицензия].[R.G.GoldenShara].torrent без регистрации
Золото ЗОЛОТАЯ РАЗДАЧА! СКАЧАННОЕ НЕ ЗАСЧИТЫВАЕТСЯ! Золото
Дата: Зарегистрирован   [ Тип: внутренний ] Как тут cкачать?
MAGNET ссылка
MAGNET ссылка


Скачать .torrent

11 KB

Статус: проверено
Скачан: торрент - 293 раз, раздача полностью - 753 раз
Размер: 4,36 GB
Оценка:  5 (Голосов: 9)
Поблагодарили: 26
Поделиться ссылкой на эту раздачу с друзьями:
В контактеFacebookОдноклассникиTwitterLivejournalМой МирLiveinternet
 

 

wuwechka

[] 

За фильм спасиб, все как всегда на высоте. ay Вопрос не по теме но все же, нашла программу VidCoder, вроде как открываешь в ней блюрей, выбираешь контейнер, указываешь нужный размер, подождать несколько часов и рип готов. Так ли это на самом деле? И где какие галочки нужно отметить? Хочу попробовать все-таки собрать коллекцию мультов про богатырей в размере 4.37гб с дорожкой АС3, а то три части мульта Иван Царевич и серый волк сделали а богатыри никому не интересны, риы богатырей есть то, но разброс размеров от 3 до 6 гигов и звук в одном ас3 в другом дтс.
 

Magnetto83

[] 

ah За фильм пожалуйста! az А по поводу рипов, к сожалению не так всё просто! ac Wuwechka, увы программа не та, да и один рип, даже полторачасового фильма, уменя кодируется сутки и более! ai По сему, все равно на выходе получите качество средней а то и хуже паршивости. ak Но так и быть, ДОЖДЁМСЯ ПОСЛЕДНИХ БОГАТЫРЕЙ, и я сделаю Вам всю коллекцию в наилучьшем виде! ad
 

wuwechka

[] 

Magnetto83 писал(а):

ah За фильм пожалуйста! az А по поводу рипов, к сожалению не так всё просто! ac Wuwechka, увы программа не та, да и один рип, даже полторачасового фильма, уменя кодируется сутки и более! ai По сему, все равно на выходе получите качество средней а то и хуже паршивости. ak Но так и быть, ДОЖДЁМСЯ ПОСЛЕДНИХ БОГАТЫРЕЙ, и я сделаю Вам всю коллекцию в наилучьшем виде! ad
Восхитительно. ay Я в принципе догадывалась что не будет так все просто, открыл-нажал-рип готов, иначе каждый второй бы делал рипы пачками. Вот по этой причине СПАСИБО таким мастерам своего дела за проделанную работу.
 

Kitaec1

[] 

Magnetto83
Очень благодарен за рип.
 

Magnetto83

[] 

az Пожалуйста! bs
 

Yurik_LP

[] 

Magnetto83 красава!! Ждем от тебя коллекцию богатырей!!! Спасибо за труды!!!
 

Magnetto83

[] 

Yurik_LP писал(а):

Magnetto83 красава!! Ждем от тебя коллекцию богатырей!!! Спасибо за труды!!!
ah Спасибо, и как говорится - "На здоровье"!!! az А "Богатыри" прискачут ближе к Марту вместе со всеми новинками! ag Также паралельно готовлю коллекцию "Борна", и еще носкольких франшиз! ad
 

dimamal80

[] 

У всех на 17-18-й минуте выбивает из фильма? Придется качать другой источник, ибо некачественный рип...
 

Magnetto83

[] 

Нет, с рипом все Ок! Просмотрел с 15 до20 минуты! Перекачате и перехешируйте торрент файл!!!! ad
 

dimamal80

[] 

Заново перекачал - та же самая хрень, вылетает при просмотре, и это не обязательно на 17-й минуте, а на 34-й например или 41-й
Телевизор philips 47pfl7606, на самсунге 7-й серии то же самое
 

dimamal80

[] 

Все, вопрос снят - перекачал фильм заново, все отлично идет, просто жена запускала старый файл, который забыл удалить)
 

dimamal80

[] 

Спасибо релизеру за рип!!!
 
Показать сообщения:    


Вы не можете начинать темы
Вы не можете отвечать на сообщения
Вы не можете редактировать свои сообщения
Вы не можете удалять свои сообщения
Вы не можете голосовать в опросах
Вы не можете прикреплять файлы к сообщениям
Вы можете скачивать файлы