Loading...
Error

Скачать [SERIAL]+[VIDEO] Звездный крейсер Галактика / Battlestar Galactica (Полная коллекция) (Майкл Раймер и др.) [2003-2012, фантастика, боевик, драма, HDRip] [MP4, 640x360] [MVO (LostFilm)] торрент без регистрации

Статистика раздачи
Размер:  17,13 GB   |    Скачан:  17 раз
Сидов:  8  [  0 KB/s  ]   Личеров:  2  [  0 KB/s  ]  
 
 
 
Автор Сообщение

МихаНЕзатор

[] 

Информация о фильме
Название: Звездный крейсер Галактика
Оригинальное название: Battlestar Galactica
Год выхода: 2003
Жанр: фантастика, боевик, драма
Режиссер: Майкл Раймер, Рональд Д. Мур, Марита Грабиак, Аллан Кроекер

В ролях: Эдвард Джеймс Олмос, Мэри МакДоннелл, Кати Сакхофф, Джейми Бамбер, Джеймс Кэллис, Тришиа Хелфер, Грэйс Пак, Кэти Сакхофф, Майкл Хоган, Аарон Дуглас, Тамо Пеникетт, Алессандро Джулиани, Кэндис МакКлюр, Доннелли Роудс, Ники Клайн, Боди Олмос, Майкл Трукко

О фильме: Люди научились создавать роботов с искусственным интеллектом, но уже через несколько лет, после начали их массового выпуска, роботы вышли из-под контроля человечества и подняли восстания. Роботы были еще далеко не совершенны и потерпели поражение в войне с человечеством. Те роботы, которым удалось избежать уничтожения, бежали в далекий космос. Через сорок лет роботы вернулись, они научились создавать других роботов, совершенно не отличимых от людей. Война между людьми и роботами вспыхнула с новой силой.

Релиз от:

Страна: США, Великобритания
Студия: BSkyB, David Eick Productions, NBC Universal Television, R&D TV/ Stanford Pictures, Universal Media Studios (UMS)
Продолжительность: 6 x ~ 00:20:00, 74 x ~ 00:42:00, 4 x ~ 01:30:00
Перевод: Профессиональный (многоголосый, одноголосый, закадровый) [LostFilm]

Файл
Формат: MP4
Качество: HDRip | КПК
Видео: MPEG-4 AVC (x264), 640x360, ~500 kbps, 23.976 fps
Аудио: AAC LC, 48.0 KHz, 2 ch, 128 Kbps
Субтитры: Нет

АНОНСЫ ПОПУЛЯРНЫХ РАЗДАЧ
01. Минисериал (2 серии).
02. Документальный фильм "Как создавался сериал".
03. Документальный фильм "О сериале".
04. Первый сезон (13 серий).
05. Второй сезон (20 серий).
06. Вебизоды "Сопротивление"
07. Третий сезон (20 серий).
08. Видео-клип "Мифология".
09. Вебизоды "Лезвие - Ретроспекция".
10. Фильм "Лезвие".
11. Документальный фильм "Разоблачение".
12. Четвертый сезон (1-11 серии).
13. Вебизоды "Лицо врага".
14. Четвертый сезон (12-15 серии).
15. Фильм "План".
16. Четвертый сезон (16-20 серии).
17. Фильм "Кровь и Хром"
Complete name : E:KinoZvezdnyj.Krejser.Galaktika.Kollekcija.AVC.HDRip.KPK.LF.GFZvezdnyj.Krejser.Galaktika.S03.AVC.HDRip.KPK.LF.GFZvezdnyj.Krejser.Galaktika.s03e14.AVC.HDRip.KPK.LF.GF.mp4
Format : MPEG-4
Codec ID : M4V (isom/iso2/avc1)
File size : 189 MiB
Duration : 41mn 36s
Overall bit rate mode : Variable
Overall bit rate : 634 Kbps
Writing application : Lavf53.19.0

Video
ID : 1
Format : AVC
Format/Info : Advanced Video Codec
Format profile : High@L4.1
Format settings, CABAC : Yes
Format settings, ReFrames : 8 frames
Codec ID : avc1
Codec ID/Info : Advanced Video Coding
Duration : 41mn 36s
Source duration : 12mn 58s
Bit rate : 500 Kbps
Width : 640 pixels
Height : 360 pixels
Display aspect ratio : 16:9
Frame rate mode : Constant
Frame rate : 23.976 fps
Color space : YUV
Chroma subsampling : 4:2:0
Bit depth : 8 bits
Scan type : Progressive
Bits/(Pixel*Frame) : 0.091
Stream size : 149 MiB (79%)
Source stream size : 149 MiB (79%)
Writing library : x264 core 146 r2538 121396c
Encoding settings : cabac=1 / ref=8 / deblock=1:-2:-2 / analyse=0x3:0x133 / me=umh / subme=10 / psy=1 / psy_rd=1.00:0.00 / mixed_ref=1 / me_range=24 / chroma_me=1 / trellis=2 / 8x8dct=1 / cqm=0 / deadzone=21,11 / fast_pskip=1 / chroma_qp_offset=-2 / threads=12 / lookahead_threads=2 / sliced_threads=0 / nr=0 / decimate=0 / interlaced=0 / bluray_compat=0 / constrained_intra=0 / bframes=8 / b_pyramid=2 / b_adapt=2 / b_bias=0 / direct=3 / weightb=1 / open_gop=0 / weightp=2 / keyint=240 / keyint_min=121 / scenecut=40 / intra_refresh=0 / rc_lookahead=40 / rc=2pass / mbtree=1 / bitrate=500 / ratetol=1.0 / qcomp=0.60 / qpmin=0 / qpmax=69 / qpstep=4 / cplxblur=20.0 / qblur=0.5 / ip_ratio=1.40 / aq=1:1.00
Menus : 3
mdhd_Duration : 2496832

Audio
ID : 2
Format : AAC
Format/Info : Advanced Audio Codec
Format profile : LC
Codec ID : 40
Duration : 41mn 36s
Bit rate mode : Variable
Bit rate : 128 Kbps
Channel(s) : 2 channels
Channel positions : Front: L R
Sampling rate : 48.0 KHz
Frame rate : 46.875 fps (1024 spf)
Compression mode : Lossy
Stream size : 38.1 MiB (20%)
Default : Yes
Alternate group : 1
Menus : 3



Скачать +[VIDEO].Звездный.крейсер.Галактика.Battlestar.Galactica.(Полная.коллекция).(Майкл.Раймер.и.др.).[2003-2012.фантастика.боевик.драма.HDRip].[MP4.640x360].[MVO.(LostFilm)].torrent без регистрации
Золото ЗОЛОТАЯ РАЗДАЧА! СКАЧАННОЕ НЕ ЗАСЧИТЫВАЕТСЯ! Золото
Дата: Зарегистрирован   [ Тип: внешний ] Как тут cкачать?
MAGNET ссылка
MAGNET ссылка


Скачать .torrent

55 KB

Статус: проверено DHT
Скачан: торрент - 17 раз, раздача полностью - 16 раз
Размер: 17,13 GB
Оценка:  - (Голосов: 0)
Поблагодарили: 0
Поделиться ссылкой на эту раздачу с друзьями:
В контактеFacebookОдноклассникиTwitterLivejournalМой МирLiveinternet
 

 
Показать сообщения:    


Вы не можете начинать темы
Вы не можете отвечать на сообщения
Вы не можете редактировать свои сообщения
Вы не можете удалять свои сообщения
Вы не можете голосовать в опросах
Вы не можете прикреплять файлы к сообщениям
Вы можете скачивать файлы