Loading...
Error

Скачать Адаптация (сезон 01) (Фёдор Стуков) [2017, комедия, шпионский фильм, WEB-DLRip] торрент без регистрации

Статистика раздачи
Размер:  5,63 GB   |    Скачан:  178 раз
Сидов:  17  [  0 KB/s  ]   Личеров:  12  [  0 KB/s  ]  
 
 
 
Автор Сообщение

МихаНЕзатор

[] 

Информация о фильме
Название: Адаптация
Год выхода: 2017
Жанр: Комедия, шпионский фильм
Режиссёр: Фёдор Стуков

В ролях: Леонид Бичевин, Артур Бесчастный, Евгения Брик, Юрий Стоянов, Питер Джейкобсон, Александр Ильин, Ася Дубровская, Брюс Джонсон, Нелли Уварова, Алексей Базанов, Андрей Бурковский, Александр Назаров (V), Иннокентий Дакаяров, Сейдулла Молдаханов, Аружан Джазильбекова, Даулет Абдыгапаров, Игорь Маслов (II), Сергей Сафронов

О фильме: Американского шпиона засылают в Газпром и ставят перед ним нереальную задачу — стать русским. Под видом русского инженера Олега Меньшова он внедряется в региональное подразделение крупной российской газодобывающей компании в городе Ноябрьск, чтобы получить секретную информацию о новейшей разработке российских ученых в области добычи газа. В идеальной подготовке шпиона есть только один пробел: он совершенно не понимает наш менталитет, что ставит под угрозу проведение всей операции. В ходе своей миссии герой знакомится с простым, но только на первый взгляд, кубанским парнем по имени Валера и местной красавицей Мариной, к которой у него постепенно возникают чувства. Американскому шпиону придется разрываться между дружбой, любовью и своей миссией. И с каждым днем выбор будет становиться все сложнее…



Автор рипа - ivandubskoj

Выпущено: Россия, Good Story Media
Продолжительность: ~ 00:24:00 / серия
Перевод: Не требуется

Файл
Кодек: XviD
Качество: WEB-DLRip
Видео: XviD, 720x400, ~ 1800 Кбит/с, 25 кадр/с
Аудио: Русский, MP3, 48000 Гц, 128 Кбит/с, 2 канала

АНОНСЫ ПОПУЛЯРНЫХ РАЗДАЧ


Торрент обновлён, добавлена 17-я серия!
При каждом добавлении создаётся новый торрент. Чтобы начать докачку новой серии, пользователям необходимо сделать следующее:
1) остановить скачивание,
2) удалить старый торрент у себя из клиента (старые серии удалять не надо),
3) скачать новый торрент и запустить его у себя в клиенте вместо старого, при этом указать клиенту путь в старую папку куда и должно происходить скачивание новых серий.
Ваш клиент при этом должен произвести хеширование (проверку) старой папки (если не производит сам - помогите ему сделать это), и будет докачивать только те серии которых у вас ещё нет. Старые серии при этом не удаляются, а продолжают раздаваться!
Eсли вы уже удалили старые серии, то предотвратить повторную закачку старых серий можно, отжав галочку в соответствующих местах при запуске нового торрента.
General
Complete name : Adaptaciya.e01.2017.WEB-DLRip.avi
Format : AVI
Format/Info : Audio Video Interleave
File size : 330 MiB
Duration : 24mn 25s
Overall bit rate : 1 891 Kbps
Writing application : VirtualDubMod 1.5.10.3 | www.virtualdub-fr.org || (build 2550/release)
Writing library : VirtualDubMod build 2550/release

Video
ID : 0
Format : MPEG-4 Visual
Format profile : Advanced Simple@L5
Format settings, BVOP : 1
Format settings, QPel : No
Format settings, GMC : No warppoints
Format settings, Matrix : Custom
Codec ID : XVID
Codec ID/Hint : XviD
Duration : 24mn 25s
Bit rate : 1 753 Kbps
Width : 720 pixels
Height : 400 pixels
Display aspect ratio : 16:9
Frame rate : 25.000 fps
Color space : YUV
Chroma subsampling : 4:2:0
Bit depth : 8 bits
Scan type : Progressive
Compression mode : Lossy
Bits/(Pixel*Frame) : 0.244
Stream size : 306 MiB (93%)
Writing library : XviD 73

Audio
ID : 1
Format : MPEG Audio
Format version : Version 1
Format profile : Layer 3
Codec ID : 55
Codec ID/Hint : MP3
Duration : 24mn 25s
Bit rate mode : Constant
Bit rate : 128 Kbps
Channel(s) : 2 channels
Sampling rate : 48.0 KHz
Compression mode : Lossy
Stream size : 22.4 MiB (7%)
Alignment : Aligned on interleaves
Interleave, duration : 40 ms (1.00 video frame)
Interleave, preload duration : 504 ms
Writing library : LAME3.99r
Encoding settings : -m s -V 4 -q 2 -lowpass 17 -b 128



Скачать Адаптация.(сезон.01).(Фёдор.Стуков).[2017.комедия.шпионский.фильм.WEB-DLRip].torrent без регистрации
Золото ЗОЛОТАЯ РАЗДАЧА! СКАЧАННОЕ НЕ ЗАСЧИТЫВАЕТСЯ! Золото
Дата: Зарегистрирован   [ Тип: внешний ] Как тут cкачать?
MAGNET ссылка
MAGNET ссылка


Скачать .torrent

30 KB

Статус: проверено DHT
Скачан: торрент - 178 раз, раздача полностью - 46 раз
Размер: 5,63 GB
Оценка:  5 (Голосов: 1)
Поблагодарили: 4
Поделиться ссылкой на эту раздачу с друзьями:
В контактеFacebookОдноклассникиTwitterLivejournalМой МирLiveinternet
 

 
Показать сообщения:    


Вы не можете начинать темы
Вы не можете отвечать на сообщения
Вы не можете редактировать свои сообщения
Вы не можете удалять свои сообщения
Вы не можете голосовать в опросах
Вы не можете прикреплять файлы к сообщениям
Вы можете скачивать файлы