Loading...
Error

Скачать Мамочки (03х01-12 из 20) (Валерия Ивановская, Александр Богданенко) [2017, ситком, комедия, WEB-DLRip] торрент без регистрации

Статистика раздачи
Размер:  4,08 GB   |    Скачан:  10 раз
Сидов:  15  [  0 KB/s  ]   Личеров:  10  [  0 KB/s  ]  
 
 
 
Автор Сообщение

МихаНЕзатор

[] 

Информация
Оригинальное название: Мамочки
Год выпуска: 2017
Жанр: Ситком, комедия
Режиссёр: Валерия Ивановская, Александр Богданенко

В ролях: Елена Николаева, Александра Булычёва, Светлана Колпакова, Сергей Лавыгин, Владимир Жеребцов, Юлиана Бажанова, Виктор Добронравов, Ксения Зуева, Анна Потебня, Константин Соловьёв, Дмитрий Мазуров, Денис Жариков, Александр Ратников, Артём Падалка, Роман Полянский, Всеволод Макаров, Юлия Подозёрова, Антонина Комиссарова, Макс Бирюков, Вадим Норштейн, Анжелика Каширина, Александр Присмотров-Белов

Описание: В новом сезоне трех героинь ждут перемены, которые перевернут всю их жизнь и заставят взглянуть на себя с другой стороны. Аня (Елена Николаева) экспериментирует с браком, Вика (Александра Булычева) готовится к семейной жизни, а у Юли (Светлана Колпакова) прибавится головной боли из-за внезапного и очень надоедливого родственника. И это только начало... Костюмированный бал, первоапрельские розыгрыши, Новый год и перевоплощение в героев любовного романа — градус юмора и страстей зашкаливает во втором сезоне «Мамочек»!



Автор рипа - ivandubskoj

Выпущено: Россия, Sisters Production, IQ Production, Yellow, Black & White
Продолжительность: ~ 00:25:00 / Серия
Перевод: Не требуется

Файл
Кодек: XviD
Качество: WEB-DLRip
Видео: XviD, ~ 1800 Кбит/с, 720x400, 25 кадр/с, 0.263 bit/pixel
Аудио: Русский, 48000 Гц, 128 Кбит/с, 2 канала (Стерео)

АНОНСЫ ПОПУЛЯРНЫХ РАЗДАЧ


Торрент обновлён, добавлена 12-я серия!
При каждом добавлении создаётся новый торрент. Чтобы начать докачку новой серии, пользователям необходимо сделать следующее:
1) остановить скачивание,
2) удалить старый торрент у себя из клиента (старые серии удалять не надо),
3) скачать новый торрент и запустить его у себя в клиенте вместо старого, при этом указать клиенту путь в старую папку куда и должно происходить скачивание новых серий.
Ваш клиент при этом должен произвести хеширование (проверку) старой папки (если не производит сам - помогите ему сделать это), и будет докачивать только те серии которых у вас ещё нет. Старые серии при этом не удаляются, а продолжают раздаваться!
Eсли вы уже удалили старые серии, то предотвратить повторную закачку старых серий можно, отжав галочку в соответствующих местах при запуске нового торрента.
General
Complete name : Mamochki.s03.e01.2017.WEB-DLRip.avi
Format : AVI
Format/Info : Audio Video Interleave
File size : 350 MiB
Duration : 25mn 4s
Overall bit rate : 1 952 Kbps
Writing application : VirtualDubMod 1.5.10.3 | www.virtualdub-fr.org || (build 2550/release)
Writing library : VirtualDubMod build 2550/release

Video
ID : 0
Format : MPEG-4 Visual
Format profile : Advanced Simple@L5
Format settings, BVOP : 1
Format settings, QPel : No
Format settings, GMC : No warppoints
Format settings, Matrix : Custom
Codec ID : XVID
Codec ID/Hint : XviD
Duration : 25mn 4s
Bit rate : 1 814 Kbps
Width : 720 pixels
Height : 400 pixels
Display aspect ratio : 16:9
Frame rate : 25.000 fps
Color space : YUV
Chroma subsampling : 4:2:0
Bit depth : 8 bits
Scan type : Progressive
Compression mode : Lossy
Bits/(Pixel*Frame) : 0.252
Stream size : 325 MiB (93%)
Writing library : XviD 73

Audio
ID : 1
Format : MPEG Audio
Format version : Version 1
Format profile : Layer 3
Codec ID : 55
Codec ID/Hint : MP3
Duration : 25mn 4s
Bit rate mode : Constant
Bit rate : 128 Kbps
Channel(s) : 2 channels
Sampling rate : 48.0 KHz
Compression mode : Lossy
Stream size : 23.0 MiB (7%)
Alignment : Aligned on interleaves
Interleave, duration : 40 ms (1.00 video frame)
Interleave, preload duration : 504 ms
Writing library : LAME3.99r
Encoding settings : -m s -V 4 -q 0 -lowpass 17 -b 128



Скачать Мамочки.(03х01-12.из.20).(Валерия.Ивановская.Александр.Богданенко).[2017.ситком.комедия.WEB-DLRip].torrent без регистрации
Золото ЗОЛОТАЯ РАЗДАЧА! СКАЧАННОЕ НЕ ЗАСЧИТЫВАЕТСЯ! Золото
Дата: Зарегистрирован   [ Тип: внешний ] Как тут cкачать?
MAGNET ссылка
MAGNET ссылка


Скачать .torrent

22 KB

Статус: проверено DHT
Скачан: торрент - 10 раз, раздача полностью - 4 раз
Размер: 4,08 GB
Оценка:  - (Голосов: 0)
Поблагодарили: 0
Поделиться ссылкой на эту раздачу с друзьями:
В контактеFacebookОдноклассникиTwitterLivejournalМой МирLiveinternet
 

 
Показать сообщения:    


Вы не можете начинать темы
Вы не можете отвечать на сообщения
Вы не можете редактировать свои сообщения
Вы не можете удалять свои сообщения
Вы не можете голосовать в опросах
Вы не можете прикреплять файлы к сообщениям
Вы можете скачивать файлы