Loading...
Error

Скачать National Geographic. Спасти планету / Before the Flood (Фишер Стивенс) [2016, документальный, новости, HDTVRip] [720p] [VO (Олег Федоров)] торрент без регистрации

Статистика раздачи
Размер:  2,59 GB   |    Скачан:  36 раз

Полного источника не было: 22 минуты

 
 
 
Автор Сообщение

Marsianka

[] 

Спасти планету / Before the Flood

Страна: США
Производство: Appian Way, Insurgent Docs
Телеканал: National Geographic
Год выпуска: 2016
Жанр: документальный, новости
Продолжительность: 01:35:32

Режиссер: Фишер Стивенс
Автор сценария: Марк Монро

В ролях: Илон Маск, Пан Ги Мун, Леонардо ДиКаприо, Джон Керри, Скотт Эндрю Робертсон

Описание: Леонардо ДиКаприо, новый посол Мира ООН по проблемам климата, берётся за главную роль в своей жизни. Путешествуя от пустошей Гренландии к лесам Суматры и залам Ватикана, ДиКаприо изучает влияние климатических изменений на нашу планету. Он пользуется своими привилегиями, чтобы побеседовать с активистами, учёными и сильными мира сего, включая Барака Обаму, Илона Маска и Папу Франциска. Изучая проблему со всех сторон, Лео ищет ответ на вопрос: что мы можем сделать, пока не стало слишком поздно..?



Перевод: Профессиональный (одноголосый, закадровый) | Олег Федоров
Субтитры: нет
Качество: HDTVRip 720p
Формат: MKV
Видео кодек: AVC
Аудио кодек: АС3
Видео: 1280x720 (16:9), 25.000 fps, MPEG-4 AVC ~3 500 kbps avg
Аудио №1: 48.0 kHz, AC3 Dolby Digital, 2/0 (L,R) ch, ~192 kbps | RUS
Аудио №2: 48.0 kHz, AC3 Dolby Digital, 2/0 (L,R) ch, ~192 kbps | ENG
Дата премьеры (мир): 9 сентября 2016


Format : Matroska
Format version : Version 4 / Version 2
File size : 2.59 GiB
Duration : 1 h 35 min
Overall bit rate : 3 883 kb/s
Movie name : love@dokujunkies.org
Encoded date : UTC 2016-11-09 08:24:17
Writing application : mkvmerge v7.8.0 ('River Man') 32bit built on Apr 3 2015 12:11:22
Writing library : libebml v1.3.1 + libmatroska v1.4.2

Video
ID : 1
Format : AVC
Format/Info : Advanced Video Codec
Format profile : High@L4.1
Format settings, CABAC : Yes
Format settings, ReFrames : 16 frames
Codec ID : V_MPEG4/ISO/AVC
Duration : 1 h 35 min
Bit rate : 3 500 kb/s
Width : 1 280 pixels
Height : 720 pixels
Display aspect ratio : 16:9
Frame rate mode : Constant
Frame rate : 25.000 FPS
Color space : YUV
Chroma subsampling : 4:2:0
Bit depth : 8 bits
Scan type : Progressive
Bits/(Pixel*Frame) : 0.152
Stream size : 2.33 GiB (90%)
Writing library : x264 core 146 r2538 121396c
Encoding settings : cabac=1 / ref=16 / deblock=1:-1:-1 / analyse=0x3:0x113 / me=umh / subme=9 / psy=1 / psy_rd=1.00:0.20 / mixed_ref=1 / me_range=64 / chroma_me=1 / trellis=2 / 8x8dct=1 / cqm=0 / deadzone=21,11 / fast_pskip=0 / chroma_qp_offset=-3 / threads=12 / lookahead_threads=3 / sliced_threads=0 / nr=0 / decimate=0 / interlaced=0 / bluray_compat=0 / constrained_intra=0 / bframes=16 / b_pyramid=2 / b_adapt=2 / b_bias=0 / direct=3 / weightb=1 / open_gop=0 / weightp=2 / keyint=250 / keyint_min=25 / scenecut=40 / intra_refresh=0 / rc_lookahead=50 / rc=2pass / mbtree=1 / bitrate=3500 / ratetol=1.0 / qcomp=0.60 / qpmin=0 / qpmax=69 / qpstep=4 / cplxblur=20.0 / qblur=0.5 / vbv_maxrate=14000 / vbv_bufsize=14000 / nal_hrd=none / filler=0 / ip_ratio=1.40 / aq=1:1.00
Default : Yes
Forced : No

Audio #1
ID : 2
Format : AC-3
Format/Info : Audio Coding 3
Mode extension : CM (complete main)
Format settings, Endianness : Big
Codec ID : A_AC3
Duration : 1 h 35 min
Bit rate mode : Constant
Bit rate : 192 kb/s
Channel(s) : 2 channels
Channel positions : Front: L R
Sampling rate : 48.0 kHz
Frame rate : 31.250 FPS (1536 spf)
Bit depth : 16 bits
Compression mode : Lossy
Stream size : 131 MiB (5%)
Language : Russian
Default : Yes
Forced : No

Audio #2
ID : 3
Format : AC-3
Format/Info : Audio Coding 3
Mode extension : CM (complete main)
Format settings, Endianness : Big
Codec ID : A_AC3
Duration : 1 h 35 min
Bit rate mode : Constant
Bit rate : 192 kb/s
Channel(s) : 2 channels
Channel positions : Front: L R
Sampling rate : 48.0 kHz
Frame rate : 31.250 FPS (1536 spf)
Bit depth : 16 bits
Compression mode : Lossy
Stream size : 130 MiB (5%)
Language : English
Default : No
Forced : No



Скачать National.Geographic.Спасти.планету.Before.the.Flood.(Фишер.Стивенс).[2016.документальный.новости.HDTVRip].[720p].[VO.(Олег.Федоров)].torrent без регистрации
Золото ЗОЛОТАЯ РАЗДАЧА! СКАЧАННОЕ НЕ ЗАСЧИТЫВАЕТСЯ! Золото
Дата: Зарегистрирован   [ Тип: внутренний ] Как тут cкачать?
MAGNET ссылка
MAGNET ссылка


Скачать .torrent

14 KB

Статус: проверено DHT
Скачан: торрент - 36 раз, раздача полностью - 22 раз
Размер: 2,59 GB
Оценка:  - (Голосов: 0)
Поблагодарили: 0
Поделиться ссылкой на эту раздачу с друзьями:
В контактеFacebookОдноклассникиTwitterLivejournalМой МирLiveinternet
 

 
Показать сообщения:    


Вы не можете начинать темы
Вы не можете отвечать на сообщения
Вы не можете редактировать свои сообщения
Вы не можете удалять свои сообщения
Вы не можете голосовать в опросах
Вы не можете прикреплять файлы к сообщениям
Вы можете скачивать файлы