Loading...
Error

Скачать Новогодний корпоратив / Office Christmas Party (Джош Гордон, Уилл Спек) [2016, комедия, BDRip] [720p] [Dub (iTunes)]+[Eng]+[Sub Rus] торрент без регистрации

Статистика раздачи
Размер:  6,26 GB   |    Скачан:  134 раза
Сидов:  1396  [  310 KB/s  ]   Личеров:  140  [  1 MB/s  ]  
 
 
 
Автор Сообщение

МихаНЕзатор

[] 

Новогодний корпоратив / Office Christmas Party


Страна: США
Производство: Paramount Pictures, DreamWorks Pictures, Bluegrass Films, Reliance Entertainment
Год выпуска: 2016
Жанр: комедия
Режиссеры: Джош Гордон, Уилл Спек
Авторы сценария: Джастин Мэйлен, Лаура Солон, Дэн Мазер

В ролях: Джейсон Бейтман, Оливия Манн, ТиДжей Миллер, Дженнифер Энистон, Кейт МакКиннон, Кортни Б. Вэнс, Джиллиан Белл, Роб Кордри

Описание: Когда сестра героя, генеральный директор компании, угрожает брату закрыть его филиал, он устраивает эпическую рождественскую вечеринку, чтобы заполучить большого клиента и спасти фирму. Однако праздник выходит из-под контроля...

Дата премьеры (мир): 7 декабря 2016
Дата премьеры (РФ): 8 декабря 2016, «Централ Партнершип»



Продолжительность: 01:45:08
Перевод: Дублированный | iTunes
Субтитры: Русские (forced, full), английские

Файл
Качество: BDRip 720p
Видео: MPEG-4 AVC, 1280x536, 7500 Kbit/s, 24.000 fps
Звук:
Аудио #01: 48 kHz, AC3, 5.1, 384 Kbps | Дублированный | iTunes | RUS |
Аудио #02: 48 kHz, AC3, 5.1, 640 Kbps | Оригинал | ENG |

АНОНСЫ ПОПУЛЯРНЫХ РАЗДАЧ


Торрент обновлён, улучшен видеоряд, заменён перевод!
General
Unique ID : 212819880881952578377325895988648606617 (0xA01B9E3E1AE3EADC8A886CC214A3FB99)
Complete name : C:UsersbattiDesktopOffice.Christmas.Party.2016.BDRip.720p.ExKinoRay.mkv
Format : Matroska
Format version : Version 4 / Version 2
File size : 6.26 GiB
Duration : 1 h 45 min
Overall bit rate : 8 523 kb/s
Encoded date : UTC 2017-03-20 19:04:24
Writing application : mkvmerge v8.3.0 ('Over the Horizon') 64bit
Writing library : libebml v1.3.1 + libmatroska v1.4.2

Video
ID : 1
Format : AVC
Format/Info : Advanced Video Codec
Format profile : High@L4.1
Format settings, CABAC : Yes
Format settings, ReFrames : 12 frames
Codec ID : V_MPEG4/ISO/AVC
Duration : 1 h 45 min
Bit rate : 7 500 kb/s
Width : 1 280 pixels
Height : 536 pixels
Display aspect ratio : 2.40:1
Frame rate mode : Constant
Frame rate : 24.000 FPS
Color space : YUV
Chroma subsampling : 4:2:0
Bit depth : 8 bits
Scan type : Progressive
Bits/(Pixel*Frame) : 0.455
Stream size : 5.51 GiB (88%)
Writing library : x264 core 148 r2744kMod b97ae06
Encoding settings : cabac=1 / ref=12 / deblock=1:-3:-3 / analyse=0x3:0x133 / me=umh / subme=11 / psy=1 / fade_compensate=0.00 / psy_rd=1.05:0.00 / mixed_ref=1 / me_range=32 / chroma_me=1 / trellis=2 / 8x8dct=1 / cqm=0 / deadzone=21,11 / fast_pskip=0 / chroma_qp_offset=-2 / threads=12 / lookahead_threads=2 / sliced_threads=0 / nr=0 / decimate=0 / interlaced=0 / bluray_compat=0 / constrained_intra=0 / bframes=8 / b_pyramid=2 / b_adapt=2 / b_bias=0 / direct=3 / weightb=1 / open_gop=0 / weightp=2 / keyint=250 / keyint_min=24 / scenecut=40 / intra_refresh=0 / rc=2pass / mbtree=0 / bitrate=7500 / ratetol=1.0 / qcomp=0.65 / qpmin=0 / qpmax=69 / qpstep=4 / cplxblur=20.0 / qblur=0.5 / ip_ratio=1.30 / pb_ratio=1.20 / aq=3:0.75
Language : English
Default : Yes
Forced : No

Audio #1
ID : 2
Format : AC-3
Format/Info : Audio Coding 3
Mode extension : CM (complete main)
Format settings, Endianness : Big
Codec ID : A_AC3
Duration : 1 h 45 min
Bit rate mode : Constant
Bit rate : 384 kb/s
Channel(s) : 6 channels
Channel positions : Front: L C R, Side: L R, LFE
Sampling rate : 48.0 kHz
Frame rate : 31.250 FPS (1536 spf)
Bit depth : 16 bits
Compression mode : Lossy
Stream size : 289 MiB (5%)
Title : iTunes
Language : Russian
Default : Yes
Forced : No

Audio #2
ID : 3
Format : AC-3
Format/Info : Audio Coding 3
Mode extension : CM (complete main)
Format settings, Endianness : Big
Codec ID : A_AC3
Duration : 1 h 45 min
Bit rate mode : Constant
Bit rate : 640 kb/s
Channel(s) : 6 channels
Channel positions : Front: L C R, Side: L R, LFE
Sampling rate : 48.0 kHz
Frame rate : 31.250 FPS (1536 spf)
Bit depth : 16 bits
Compression mode : Lossy
Stream size : 481 MiB (8%)
Title : Original
Language : English
Default : No
Forced : No

Text #1
ID : 4
Format : UTF-8
Codec ID : S_TEXT/UTF8
Codec ID/Info : UTF-8 Plain Text
Duration : 1 h 35 min
Bit rate : 1 b/s
Count of elements : 24
Stream size : 1.34 KiB (0%)
Title : Forced
Language : Russian
Default : Yes
Forced : No

Text #2
ID : 5
Format : UTF-8
Codec ID : S_TEXT/UTF8
Codec ID/Info : UTF-8 Plain Text
Duration : 1 h 41 min
Bit rate : 146 b/s
Count of elements : 2216
Stream size : 108 KiB (0%)
Title : Full
Language : Russian
Default : No
Forced : No

Text #3
ID : 6
Format : UTF-8
Codec ID : S_TEXT/UTF8
Codec ID/Info : UTF-8 Plain Text
Duration : 1 h 40 min
Bit rate : 97 b/s
Count of elements : 2312
Stream size : 72.1 KiB (0%)
Title : Full
Language : English
Default : No
Forced : No

Text #4
ID : 7
Format : UTF-8
Codec ID : S_TEXT/UTF8
Codec ID/Info : UTF-8 Plain Text
Duration : 1 h 41 min
Bit rate : 105 b/s
Count of elements : 2512
Stream size : 78.5 KiB (0%)
Title : SDH
Language : English
Default : No
Forced : No

Menu
00:00:00.000 : en:00:00:00.000
00:08:02.708 : en:00:08:02.708
00:12:26.333 : en:00:12:26.333
00:22:25.250 : en:00:22:25.250
00:28:45.625 : en:00:28:45.625
00:32:00.792 : en:00:32:00.792
00:39:18.625 : en:00:39:18.625
00:48:50.625 : en:00:48:50.625
00:54:02.417 : en:00:54:02.417
00:59:19.333 : en:00:59:19.333
01:04:26.292 : en:01:04:26.292
01:10:02.375 : en:01:10:02.375
01:15:32.000 : en:01:15:32.000
01:20:58.167 : en:01:20:58.167
01:26:23.833 : en:01:26:23.833
01:34:44.500 : en:01:34:44.500
01:39:13.625 : en:01:39:13.625



Скачать Новогодний.корпоратив.Office.Christmas.Party.(Джош.Гордон.Уилл.Спек).[2016.комедия.BDRip].[720p].[Dub.(iTunes)]+[Eng]+[Sub.Rus].torrent без регистрации
Золото ЗОЛОТАЯ РАЗДАЧА! СКАЧАННОЕ НЕ ЗАСЧИТЫВАЕТСЯ! Золото
Дата: Зарегистрирован   [ Тип: внешний ] Как тут cкачать?
MAGNET ссылка
MAGNET ссылка


Скачать .torrent

32 KB

Статус: проверено DHT
Скачан: торрент - 134 раз, раздача полностью - 122 раз
Размер: 6,26 GB
Оценка:  5 (Голосов: 1)
Поблагодарили: 5
Поделиться ссылкой на эту раздачу с друзьями:
В контактеFacebookОдноклассникиTwitterLivejournalМой МирLiveinternet
 

 
Показать сообщения:    


Вы не можете начинать темы
Вы не можете отвечать на сообщения
Вы не можете редактировать свои сообщения
Вы не можете удалять свои сообщения
Вы не можете голосовать в опросах
Вы не можете прикреплять файлы к сообщениям
Вы можете скачивать файлы