Loading...
Error

Скачать Мата Хари (01-06 из 12) (Дени Берри, Джулиус Берг) [2016, биография, драма, исторический, фильм, HDTVRip-AVC] торрент без регистрации

Статистика раздачи
Размер:  4,25 GB   |    Скачан:  19 раз
Сидов:  9  [  0 KB/s  ]   Личеров:  23  [  0 KB/s  ]  
 
 
 
Автор Сообщение

МихаНЕзатор

[] 

Мата Хари

Эпизоды с 1 по 6 (из 12)



Год выпуска: 2016
Страна: Россия, Португалия, Украина
Производство: Кинокомпания «Star Media» по заказу Первого канала
Жанр: Биография, драма, исторический фильм
Режиссёр: Дени Берри, Джулиус Берг

В ролях: Ваина Джоканте, Ойсин Стак, Максим Матвеев, Рутгер Хауэр, Йехезкель Лазаров, Джон Корбетт, Алексей Гуськов, Раде Шербеджия, Нуно Лопес, Крис Мерфи, Ксения Раппопорт, Виктория Исакова, Кристофер Ламберт, Александр Петров (III), Светлана Ходченкова, Мария Фомина, Макар Запорожский, Александр Михайлов, Дмитрий Мальцев (III), Дарья Мельникова, Жорж Девдариани, Евгений Шибалко, Пётр Нестеров, Сергей Самородов, Артём Цыпин, Александр Хошабаев, Иван Рудаков

Описание: Маргарет Мак-Леод, преследуемая своим бывшим мужем, лишается опеки над дочерью и брошена на произвол судьбы, не имея никаких средств к существованию. Она становится танцовщицей, отчаявшись найти какой-либо другой заработок. Под псевдонимом Мата Хари, Маргарет становится любимицей европейской элиты. Для неё открываются двери роскошных особняков и вилл, каждое выступление производит невероятный фурор. Но грядёт Первая мировая война, которая навсегда изменит ход истории. И едва ли Мата Хари догадывается, какую роль ей суждено сыграть в предстоящих событиях.



Релиз от: Rip by:

Продолжительность: 1 х 00:50:00
Перевод: Не требуется
Субтитры: Нет
Реклама: Отсутствует

Качество: HDTVRip-AVC
Формат: MKV
Видео кодек: MPEG-4 AVC
Аудио кодек: АС3
Свойства видео: 1024x576 (16:9), 25 fps, MPEG-4 AVC ~2 000 kbps avg, 0.136 bit/pixel
Свойства аудио: 48 KHz, AC3, 2 ch, ~192.00 kbps avg


АНОНСЫ ПОПУЛЯРНЫХ РАЗДАЧ


Торрент обновлён, добавлена 6-я серия!

Общее
Уникальный идентификатор : 225310905059343250581106424646137306521 (0xA9814D4857289CBE8186AE5199905D99)
Полное имя : D:Mata.Hari.2016.HDTVRip(AVC).OlLanDGroup1.Mata.Hari.2016.HDTVRip(AVC).OlLanDGroup.mkv
Формат : Matroska
Версия формата : Version 2
Размер файла : 713 Мбайт
Продолжительность : 45 м. 27 с.
Общий поток : 2194 Кбит/сек
Дата кодирования : UTC 2017-03-20 18:08:34
Программа кодирования : mkvmerge v7.8.0 ('River Man') 32bit built on Apr 3 2015 12:11:22
Библиотека кодирования : libebml v1.3.1 + libmatroska v1.4.2

Видео
Идентификатор : 1
Формат : AVC
Формат/Информация : Advanced Video Codec
Профиль формата : High@L4.1
Параметр CABAC формата : Да
Параметр ReFrames формата : 10 кадров
Идентификатор кодека : V_MPEG4/ISO/AVC
Продолжительность : 45 м. 27 с.
Битрейт : 2000 Кбит/сек
Ширина : 1024 пикселя
Высота : 576 пикселей
Соотношение сторон : 16:9
Режим частоты кадров : Постоянный
Частота кадров : 25,000 кадров/сек
Цветовое пространство : YUV
Субдискретизация насыщенности : 4:2:0
Битовая глубина : 8 бит
Тип развёртки : Прогрессивная
Бит/(Пиксели*Кадры) : 0.136
Размер потока : 637 Мбайт (89%)
Библиотека кодирования : x264 core 146 r2538 121396c
Настройки программы : cabac=1 / ref=10 / deblock=1:-3:-3 / analyse=0x3:0x133 / me=umh / subme=10 / psy=1 / psy_rd=1.00:0.07 / mixed_ref=1 / me_range=48 / chroma_me=1 / trellis=2 / 8x8dct=1 / cqm=0 / deadzone=21,11 / fast_pskip=0 / chroma_qp_offset=-3 / threads=6 / lookahead_threads=1 / sliced_threads=0 / nr=0 / decimate=0 / interlaced=0 / bluray_compat=0 / constrained_intra=0 / bframes=10 / b_pyramid=2 / b_adapt=2 / b_bias=0 / direct=3 / weightb=1 / open_gop=0 / weightp=2 / keyint=250 / keyint_min=25 / scenecut=40 / intra_refresh=0 / rc_lookahead=40 / rc=2pass / mbtree=0 / bitrate=2000 / ratetol=1.0 / qcomp=0.60 / qpmin=0 / qpmax=69 / qpstep=4 / cplxblur=20.0 / qblur=0.5 / vbv_maxrate=50000 / vbv_bufsize=62500 / nal_hrd=none / filler=0 / ip_ratio=1.40 / pb_ratio=1.30 / aq=1:1.00
Default : Да
Forced : Нет
Цветовой диапазон : Limited
Основные цвета : BT.709
Характеристики трансфера : BT.709
Коэффициенты матрицы : BT.709

Аудио
Идентификатор : 2
Формат : AC-3
Формат/Информация : Audio Coding 3
Расширение режима : CM (complete main)
Параметр Endianness формата : Big
Идентификатор кодека : A_AC3
Продолжительность : 45 м. 27 с.
Вид битрейта : Постоянный
Битрейт : 192 Кбит/сек
Каналы : 2 канала
Расположение каналов : Front: L R
Частота : 48,0 КГц
Частота кадров : 31,250 кадров/сек (1536 spf)
Битовая глубина : 16 бит
Метод сжатия : С потерями
Размер потока : 62,4 Мбайт (9%)
Default : Да
Forced : Нет



Скачать Мата.Хари.(01-06.из.12).(Дени.Берри.Джулиус.Берг).[2016.биография.драма.исторический.фильм.HDTVRip-AVC].torrent без регистрации
Золото ЗОЛОТАЯ РАЗДАЧА! СКАЧАННОЕ НЕ ЗАСЧИТЫВАЕТСЯ! Золото
Дата: Зарегистрирован   [ Тип: внешний ] Как тут cкачать?
MAGNET ссылка
MAGNET ссылка


Скачать .torrent

23 KB

Статус: проверено DHT
Скачан: торрент - 19 раз, раздача полностью - 2 раз
Размер: 4,25 GB
Оценка:  - (Голосов: 0)
Поблагодарили: 0
Поделиться ссылкой на эту раздачу с друзьями:
В контактеFacebookОдноклассникиTwitterLivejournalМой МирLiveinternet
 

 
Показать сообщения:    


Вы не можете начинать темы
Вы не можете отвечать на сообщения
Вы не можете редактировать свои сообщения
Вы не можете удалять свои сообщения
Вы не можете голосовать в опросах
Вы не можете прикреплять файлы к сообщениям
Вы можете скачивать файлы