Loading...
Error

Скачать Бесславные ублюдки / Inglourious Basterds (Квентин Тарантино, Элай Рот) [2009, Приключения, драма, военный, BDRip][1080p] [DUB Лицензия] [R.G. GoldenShara] торрент без регистрации

Статистика раздачи
Размер:  4,36 GB   |    Скачан:  47 раз
Сидов:  2  [  7 KB/s  ]  
 
 
 
Автор Сообщение

Magnetto83

[] 


Бесславные ублюдки / Inglourious Basterds


Год выпуска: 2009
Выпущено: США, Германия / Universal Pictures, A Band Apart, Lawrence Bender Productions, Studio Babelsberg...
Жанр: Приключения, драма, военный
Продолжительность: 02:32:52
Перевод: Профессиональный (полное дублирование)(Расширенный перевод, в том числе дублирован и голос Гитлера) - BD CEE
Субтитры: Русские (forced, full), русские Гоблин (forced, full), русские Воронин (forced, full), украинские (forced, full), английские (forced, full)
Навигация по главам: Сохранены оригинальные главы как на Blu-ray

Режиссер: Квентин Тарантино / Quentin Tarantino, Элай Рот / Eli Roth

Слоган: «Они мстят бодро, весело, со вкусом»

В ролях: Брэд Питт, Кристоф Вальц, Мелани Лоран, Элай Рот, Майкл Фассбендер, Дайан Крюгер, Даниэль Брюль, Тиль Швайгер, Гедеон Буркхард, Джеки Идо

Описание: Вторая мировая война, в оккупированной немцами Франции группа американских солдат-евреев наводит страх на нацистов, жестоко убивая и скальпируя солдат.



Возраст: 18+ (зрителям, достигшим 18 лет! Запрещено для детей!)
Рейтинг MPAA: R (Лицам до 17 лет обязательно присутствие взрослого)

Качество: BDRip 1080p
Формат: MKV
Видео кодек: H.264
Аудио кодек: AC3
Видео: 1920x800 (2.40:1), 3703 Кбит/с, 23.976 fps
Аудио: Русский Dolby Digital 5.1 (384 Кбит/с)


x264 [info]: frame I:1549 Avg QP:15.61 size:182483
x264 [info]: frame P:43334 Avg QP:18.67 size: 41876
x264 [info]: frame B:175029 Avg QP:21.19 size: 12260
x264 [info]: consecutive B-frames: 1.3% 1.8% 7.9% 9.3% 16.1% 47.8% 8.6% 3.4% 3.8%
x264 [total]: encoded 219912 frames, 1.45 fps, 3700.86 kb/s



General
Complete name : D:\Video\HD\Собственные Рипы 1080р\Собственные Рипы 1080р Выложенные\Бесславные Ублюдки 2009 Dub Rus BDRip 1080p.mkv
Format : Matroska
Format version : Version 4 / Version 2
File size : 4.36 GiB
Duration : 2h 32mn
Overall bit rate : 4 087 Kbps
Movie name : Бесславные Ублюдки 2009 Dub Rus BDRip 1080p By Magnetto 83
Encoded date : UTC 2016-06-30 17:50:55
Writing application : mkvmerge v7.8.0 ('River Man') 32bit built on Mar 27 2015 16:18:02
Writing library : libebml v1.3.1 + libmatroska v1.4.2
DURATION : 02:24:38.074000000
NUMBER_OF_FRAMES : 968
NUMBER_OF_BYTES : 32827
_STATISTICS_WRITING_APP : mkvmerge v7.8.0 ('River Man') 32bit built on Mar 27 2015 16:18:02
_STATISTICS_WRITING_DATE_UTC : 2016-06-30 17:50:55
_STATISTICS_TAGS : BPS DURATION NUMBER_OF_FRAMES NUMBER_OF_BYTES

Video
ID : 1
Format : AVC
Format/Info : Advanced Video Codec
Format profile : High@L4.1
Format settings, CABAC : Yes
Format settings, ReFrames : 5 frames
Codec ID : V_MPEG4/ISO/AVC
Duration : 2h 32mn
Bit rate : 3 703 Kbps
Width : 1 920 pixels
Height : 800 pixels
Display aspect ratio : 2.40:1
Frame rate mode : Constant
Frame rate : 23.976 fps
Color space : YUV
Chroma subsampling : 4:2:0
Bit depth : 8 bits
Scan type : Progressive
Bits/(Pixel*Frame) : 0.101
Stream size : 3.87 GiB (89%)
Title : Бесславные Ублюдки 2009 BDRip 1080p
Writing library : x264 core 146 r2538 121396c
Encoding settings : cabac=1 / ref=5 / deblock=1:-1:-1 / analyse=0x3:0x113 / me=umh / subme=10 / psy=1 / psy_rd=1.00:0.00 / mixed_ref=1 / me_range=32 / chroma_me=1 / trellis=2 / 8x8dct=1 / cqm=0 / deadzone=21,11 / fast_pskip=0 / chroma_qp_offset=-2 / threads=3 / lookahead_threads=1 / sliced_threads=0 / nr=0 / decimate=1 / interlaced=0 / bluray_compat=0 / constrained_intra=0 / bframes=8 / b_pyramid=2 / b_adapt=2 / b_bias=0 / direct=3 / weightb=1 / open_gop=0 / weightp=2 / keyint=250 / keyint_min=23 / scenecut=40 / intra_refresh=0 / rc=2pass / mbtree=0 / bitrate=3703 / ratetol=1.0 / qcomp=0.60 / qpmin=0 / qpmax=69 / qpstep=4 / cplxblur=20.0 / qblur=0.5 / ip_ratio=1.40 / pb_ratio=1.30 / aq=2:1.00
Default : Yes
Forced : No

Audio
ID : 2
Format : AC-3
Format/Info : Audio Coding 3
Mode extension : CM (complete main)
Format settings, Endianness : Big
Codec ID : A_AC3
Duration : 2h 32mn
Bit rate mode : Constant
Bit rate : 384 Kbps
Channel(s) : 6 channels
Channel positions : Front: L C R, Side: L R, LFE
Sampling rate : 48.0 KHz
Compression mode : Lossy
Stream size : 420 MiB (9%)
Title : DD 5.1 @ 384 kbps - Дубляж [Лицензия BD CEE]
Language : Russian
Default : Yes
Forced : No

Text #1
ID : 3
Format : UTF-8
Codec ID : S_TEXT/UTF8
Codec ID/Info : UTF-8 Plain Text
Title : Forced
Language : Russian
Default : Yes
Forced : No

Text #2
ID : 4
Format : UTF-8
Codec ID : S_TEXT/UTF8
Codec ID/Info : UTF-8 Plain Text
Title : Forced Расширенные
Language : Russian
Default : No
Forced : No

Text #3
ID : 5
Format : UTF-8
Codec ID : S_TEXT/UTF8
Codec ID/Info : UTF-8 Plain Text
Title : Forced - Goblin
Language : Russian
Default : No
Forced : No

Text #4
ID : 6
Format : UTF-8
Codec ID : S_TEXT/UTF8
Codec ID/Info : UTF-8 Plain Text
Title : Full - Goblin
Language : Russian
Default : No
Forced : No

Text #5
ID : 7
Format : UTF-8
Codec ID : S_TEXT/UTF8
Codec ID/Info : UTF-8 Plain Text
Title : Forced - Voronine
Language : Russian
Default : No
Forced : No

Text #6
ID : 8
Format : UTF-8
Codec ID : S_TEXT/UTF8
Codec ID/Info : UTF-8 Plain Text
Title : Full - Voronine
Language : Russian
Default : No
Forced : No

Text #7
ID : 9
Format : UTF-8
Codec ID : S_TEXT/UTF8
Codec ID/Info : UTF-8 Plain Text
Title : Full
Language : Ukrainian
Default : No
Forced : No

Text #8
ID : 10
Format : UTF-8
Codec ID : S_TEXT/UTF8
Codec ID/Info : UTF-8 Plain Text
Title : Forced
Language : English
Default : No
Forced : No

Text #9
ID : 11
Format : UTF-8
Codec ID : S_TEXT/UTF8
Codec ID/Info : UTF-8 Plain Text
Title : Full
Language : English
Default : No
Forced : No

Menu
00:00:00.000 : en:(01)00:00:00:000
00:01:50.610 : en:(02)00:01:50:610
00:07:06.384 : en:(03)00:07:06:384
00:21:20.820 : en:(04)00:21:20:820
00:24:12.826 : en:(05)00:24:12:826
00:28:15.902 : en:(06)00:28:15:902
00:30:18.942 : en:(07)00:30:18:942
00:37:57.108 : en:(08)00:37:57:108
00:41:47.922 : en:(09)00:41:47:922
00:48:28.405 : en:(10)00:48:28:405
00:53:53.563 : en:(11)00:53:53:563
01:00:50.438 : en:(12)01:00:50:438
01:04:05.341 : en:(13)01:04:05:341
01:09:24.702 : en:(14)01:09:24:702
01:12:17.166 : en:(15)01:12:17:166
01:19:25.927 : en:(16)01:19:25:927
01:32:54.777 : en:(17)01:32:54:777
01:37:02.233 : en:(18)01:37:02:233
01:43:51.475 : en:(19)01:43:51:475
01:45:38.040 : en:(20)01:45:38:040
01:50:30.623 : en:(21)01:50:30:623
01:57:35.089 : en:(22)01:57:35:089
02:03:38.452 : en:(23)02:03:38:452
02:10:30.072 : en:(24)02:10:30:072
02:16:40.859 : en:(25)02:16:40:859
02:23:10.748 : en:(26)02:23:10:748
02:25:47.280 : en:(27)02:25:47:280
02:29:30.960 : en:(28)02:29:30:960
02:32:51.912 : en:(29)02:32:51:912







Скачать Бесславные.ублюдки.Inglourious.Basterds.(Квентин.Тарантино.Элай.Рот).[2009.Приключения.драма.военный.BDRip][1080p].[DUB.Лицензия].[R.G.GoldenShara].torrent без регистрации
Золото ЗОЛОТАЯ РАЗДАЧА! СКАЧАННОЕ НЕ ЗАСЧИТЫВАЕТСЯ! Золото
Дата: Зарегистрирован   [ Тип: внутренний ] Как тут cкачать?
MAGNET ссылка
MAGNET ссылка


Скачать .torrent

11 KB

Статус: проверено
Скачан: торрент - 47 раз, раздача полностью - 44 раз
Размер: 4,36 GB
Оценка:  5 (Голосов: 5)
Поблагодарили: 11
Поделиться ссылкой на эту раздачу с друзьями:
В контактеFacebookОдноклассникиTwitterLivejournalМой МирLiveinternet
 

 
Показать сообщения:    


Вы не можете начинать темы
Вы не можете отвечать на сообщения
Вы не можете редактировать свои сообщения
Вы не можете удалять свои сообщения
Вы не можете голосовать в опросах
Вы не можете прикреплять файлы к сообщениям
Вы можете скачивать файлы