Loading...
Error

Скачать Мёртв на 99% [S01] (2017) HDTVRip-AVC от New-Team торрент без регистрации

Статистика раздачи
Размер:  5,03 GB   |    Скачан:  18 раз
Сидов:  42  [  0 KB/s  ]   Личеров:  1  [  0 KB/s  ]  
 
 
 
Автор Сообщение

МихаНЕзатор

[] 

Мёртв на 99%

«Жив тот, в кого ты веришь...»



Страна: Россия
Жанр: боевик, детектив
Год выпуска: 2017
Режиссер: Степан Коршунов

В ролях: Алексей Чадов, Анна Старшенбаум, Олег Тактаров, Константин Адаев, Олег Мазуров, Борис Хвошнянский, Александр Наумов, Анна Попова, Максим Митяшин, Евгения Храповицкая, Александра Чичкова, Сабина Ахмедова

Описание: Артём умеет красиво зарабатывать деньги и легко с ними расставаться. Его жизнь напоминает сказку: дорогие спорткары, роскошные лофты, элитные рестораны и девушка-модель... Идиллия заканчивается, когда Артёма принимают за опасного преступника по кличке Змей. За Змеем охотятся и Интерпол, и агент ФСБ Хромов, и обманутые им торговцы оружием из Албании. У полковника Хромова есть сомнения, кто же на самом деле этот Змей? Может преступник присвоил внешность Артова и занял его место успешного архитектора? Чтобы вернуть себе имя и отстоять право на жизнь, Артёму предстоит выживать в огромном городе без денег, машины и документов.

Релиз:

Автор рипа: stalkerok

Продолжительность: 00:47:25
Перевод: Не требуется
Субтитры: нет
Оригинальная аудиодорожка: русский
Количество серий: 1 - 10 из 10

Качество видео: HDTVRip-AVC [HDTV 1080i Nikolspup]
Формат видео: MKV
Видео кодек: AVC
Аудио кодек: AC3
Видео: ~1350 Кбит/сек, 1022x436 (2.35:1), 25 кадр/сек, AVC
Аудио: русский, 192 Кбит/сек, 48 КГц, 16 бит, 2.0, AC3


x264 [info]: frame I:554 Avg QP:16.76 size: 36409
x264 [info]: frame P:18074 Avg QP:18.73 size: 14601
x264 [info]: frame B:52512 Avg QP:21.77 size: 3977

Общее
Уникальный идентификатор : 193423507031246280410735207378642248537 (0x9184032D90252759A8BAA298535FA359)
Полное имя : I:Мертв на 99%Mertv.na.99%.S01.2017.HDTVRip-AVC.stalkerok.new-teamMertv.na.99%.S01E01.2017.HDTVRip-AVC.stalkerok.new-team.mkv
Формат : Matroska
Версия формата : Version 4 / Version 2
Размер файла : 536 Мбайт
Продолжительность : 47 м.
Общий поток : 1579 Кбит/сек
Название фильма : Мёртв на 99% (2017) (Rip by stalkerok)
Дата кодирования : UTC 2017-04-15 18:14:14
Программа кодирования : mkvmerge v8.6.1 ('Flying') 64bit
Библиотека кодирования : libebml v1.3.3 + libmatroska v1.4.4

Видео
Идентификатор : 1
Формат : AVC
Формат/Информация : Advanced Video Codec
Профиль формата : High@L4.1
Параметр CABAC формата : Да
Параметр ReFrames формата : 13 кадров
Идентификатор кодека : V_MPEG4/ISO/AVC
Продолжительность : 47 м.
Битрейт : 1386 Кбит/сек
Ширина : 1022 пикселя
Высота : 436 пикселей
Соотношение сторон : 2,35:1
Режим частоты кадров : Постоянный
Частота кадров : 25,000 кадров/сек
Цветовое пространство : YUV
Субдискретизация насыщенности : 4:2:0
Битовая глубина : 8 бит
Тип развёртки : Прогрессивная
Бит/(Пиксели*Кадры) : 0.124
Размер потока : 470 Мбайт (88%)
Заголовок : Мёртв на 99% (2017) (Rip by stalkerok)
Библиотека кодирования : x264 core 148 r2705+54 9f484c1 t_mod_Custom [8-bit@all X86_64]
Настройки программы : cabac=1 / ref=13 / deblock=1:-3:-2 / analyse=0x3:0x133 / me=umh / subme=10 / psy=1 / fade_compensate=0.00 / psy_rd=1.00:0.00 / mixed_ref=1 / me_range=32 / chroma_me=1 / trellis=2 / 8x8dct=1 / cqm=0 / deadzone=21,11 / fast_pskip=0 / chroma_qp_offset=-2 / threads=12 / lookahead_threads=3 / sliced_threads=0 / nr=0 / decimate=1 / interlaced=0 / bluray_compat=0 / constrained_intra=0 / fgo=0 / bframes=13 / b_pyramid=2 / b_adapt=2 / b_bias=0 / direct=3 / weightb=1 / open_gop=0 / weightp=2 / keyint=250 / keyint_min=25 / scenecut=40 / intra_refresh=0 / rc_lookahead=60 / rc=crf / mbtree=0 / crf=19.2000 / qcomp=0.65 / qpmin=0:0:0 / qpmax=69:69:69 / qpstep=4 / vbv_maxrate=50000 / vbv_bufsize=62500 / crf_max=0.0 / nal_hrd=none / filler=0 / ip_ratio=1.40 / pb_ratio=1.30 / aq=3:0.85 / aq-sensitivity=10.00 / aq-factor=1.00:1.00:1.00 / aq2=0 / aq3=0
Default : Да
Forced : Нет

Аудио
Идентификатор : 2
Формат : AC-3
Формат/Информация : Audio Coding 3
Расширение режима : CM (complete main)
Параметр Endianness формата : Big
Идентификатор кодека : A_AC3
Продолжительность : 47 м.
Вид битрейта : Постоянный
Битрейт : 192 Кбит/сек
Каналы : 2 канала
Расположение каналов : Front: L R
Частота : 48,0 КГц
Частота кадров : 31,250 кадров/сек (1536 spf)
Метод сжатия : С потерями
Размер потока : 65,1 Мбайт (12%)
Язык : Russian
Default : Да
Forced : Нет




Скачать Мёртв.на.99%.[S01].(2017).HDTVRip-AVC.от.New-Team.torrent без регистрации
Золото ЗОЛОТАЯ РАЗДАЧА! СКАЧАННОЕ НЕ ЗАСЧИТЫВАЕТСЯ! Золото
Дата: Зарегистрирован   [ Тип: внешний ] Как тут cкачать?
MAGNET ссылка
MAGNET ссылка


Скачать .torrent

15 KB

Статус: проверено DHT
Скачан: торрент - 18 раз, раздача полностью - 16 раз
Размер: 5,03 GB
Оценка:  - (Голосов: 0)
Поблагодарили: 1
Поделиться ссылкой на эту раздачу с друзьями:
В контактеFacebookОдноклассникиTwitterLivejournalМой МирLiveinternet
 

 
Показать сообщения:    


Вы не можете начинать темы
Вы не можете отвечать на сообщения
Вы не можете редактировать свои сообщения
Вы не можете удалять свои сообщения
Вы не можете голосовать в опросах
Вы не можете прикреплять файлы к сообщениям
Вы можете скачивать файлы