Loading...
Error

Скачать National Geographic. Больше чем фокусы с Ди Эм Си / Beyond Magic with DMC [01-07 из 07] (Саймон Арнольд, Мэтт Потекари) [2014, документальный, детектив, познавательный, HDTVRip] [720p] [VO] торрент без регистрации

Статистика раздачи
Размер:  6,87 GB   |    Скачан:  28 раз
Сидов:  1  [  0 KB/s  ]  
 
 
 
Автор Сообщение

Marsianka

[] 

Больше чем фокусы с Ди Эм Си / Beyond Magic with DMC

Страна: Великобритания
Производство: National Geographic, So Shoot Me
Год выпуска: 2014
Жанр: документальный, детектив, познавательный
Продолжительность: 7х ~00:44:00

Режиссер: Саймон Арнольд, Мэтт Потекари

В ролях: Стефани Кларк, Шэрон Элизабет Гринвуд, Пенни Джудд, Карен Кинг, Марк Райдер, Мэтт Таунсенд, Драммонд Мани-Кауттс

Описание: Драммонд Мани-Куттс путешествует по всему миру и не перестает удивлять людей своими невероятными карточными фокусами. Он заинтересовался увлекательной карточной магией с детства и развивал свой талант много лет. Ди Эм Си раскроет секреты самых известных карточных фокусов, с помощью которых шулеры зарабатывали целые состояния...



Перевод: Профессиональный (одноголосый, закадровый)
Субтитры: нет
Качество: HDTVRip 720p
Формат: MKV
Видео кодек: AVC
Аудио кодек: AС3
Видео: 1280x720 (16:9), 25.000 fps, MPEG-4 AVC ~3 000 kbps avg
Аудио: 48.0 kHz, AC3 Dolby Digital, 2/0 (L,R) ch, ~192 kbps | RUS

Дата премьеры (мир): 6 ноября 2014



Релиз от: alf62
General
Ди.Эм.Си.(1.серия).Разорванный.2014.AVC.720p.x264.HDTVRip.alf62.mkv
Формат : Matroska
Версия формата : Version 4 / Version 2
Размер файла : 1004 Мбайт
Продолжительность : 43 м.
Общий поток : 3193 Кбит/сек
Дата кодирования : UTC 2017-04-23 07:01:17
Программа кодирования : mkvmerge v6.0.0 ('Coming Up For Air') built on Jan 20 2013 09:52:00
Библиотека кодирования : libebml v1.3.0 + libmatroska v1.4.0

Видео
Идентификатор : 1
Формат : AVC
Формат/Информация : Advanced Video Codec
Профиль формата : High@L4.1
Параметр CABAC формата : Да
Параметр ReFrames формата : 9 кадров
Идентификатор кодека : V_MPEG4/ISO/AVC
Продолжительность : 43 м.
Битрейт : 3000 Кбит/сек
Ширина : 1280 пикселей
Высота : 720 пикселей
Соотношение сторон : 16:9
Режим частоты кадров : Постоянный
Частота кадров : 25,000 кадров/сек
Цветовое пространство : YUV
Субдискретизация насыщенности : 4:2:0
Битовая глубина : 8 бит
Тип развёртки : Прогрессивная
Бит/(Пиксели*Кадры) : 0.130
Размер потока : 924 Мбайт (92%)
Библиотека кодирования : x264 core 146 r2538 121396c
Настройки программы : cabac=1 / ref=9 / deblock=1:-2:-2 / analyse=0x3:0x113 / me=umh / subme=10 / psy=1 / psy_rd=1.00:0.00 / mixed_ref=1 / me_range=32 / chroma_me=1 / trellis=2 / 8x8dct=1 / cqm=0 / deadzone=21,11 / fast_pskip=0 / chroma_qp_offset=-2 / threads=6 / lookahead_threads=1 / sliced_threads=0 / nr=0 / decimate=0 / interlaced=0 / bluray_compat=0 / constrained_intra=0 / bframes=9 / b_pyramid=2 / b_adapt=2 / b_bias=0 / direct=3 / weightb=1 / open_gop=0 / weightp=2 / keyint=250 / keyint_min=25 / scenecut=40 / intra_refresh=0 / rc_lookahead=40 / rc=2pass / mbtree=0 / bitrate=3000 / ratetol=1.0 / qcomp=0.60 / qpmin=10 / qpmax=51 / qpstep=4 / cplxblur=20.0 / qblur=0.5 / vbv_maxrate=14000 / vbv_bufsize=14000 / nal_hrd=none / filler=0 / ip_ratio=1.40 / pb_ratio=1.30 / aq=1:0.80
Default : Да
Forced : Нет

Аудио
Идентификатор : 2
Формат : AC-3
Формат/Информация : Audio Coding 3
Расширение режима : CM (complete main)
Параметр Endianness формата : Big
Идентификатор кодека : A_AC3
Продолжительность : 43 м.
Вид битрейта : Постоянный
Битрейт : 192 Кбит/сек
Каналы : 2 канала
Расположение каналов : Front: L R
Частота : 48,0 КГц
Битовая глубина : 16 бит
Метод сжатия : С потерями
Размер потока : 60,4 Мбайт (6%)
Default : Да
Forced : Нет



Скачать National.Geographic.Больше.чем.фокусы.с.Ди.Эм.Си.Beyond.Magic.with.DMC.[01-07.из.07].(Саймон.Арнольд.Мэтт.Потекари).[2014.документальный.детектив.познавательный.HDTVRip].[720p].[VO].torrent без регистрации
Золото ЗОЛОТАЯ РАЗДАЧА! СКАЧАННОЕ НЕ ЗАСЧИТЫВАЕТСЯ! Золото
Дата: Зарегистрирован   [ Тип: внутренний ] Как тут cкачать?
MAGNET ссылка
MAGNET ссылка


Скачать .torrent

19 KB

Статус: проверено DHT
Скачан: торрент - 28 раз, раздача полностью - 0 раз
Размер: 6,87 GB
Оценка:  - (Голосов: 0)
Поблагодарили: 1
Поделиться ссылкой на эту раздачу с друзьями:
В контактеFacebookОдноклассникиTwitterLivejournalМой МирLiveinternet
 

 
Показать сообщения:    


Вы не можете начинать темы
Вы не можете отвечать на сообщения
Вы не можете редактировать свои сообщения
Вы не можете удалять свои сообщения
Вы не можете голосовать в опросах
Вы не можете прикреплять файлы к сообщениям
Вы можете скачивать файлы