Loading...
Error

Скачать Егор Булычов и другие (Юлия Солнцева) [1953, драма, DVDRip] торрент без регистрации

Статистика раздачи
Размер:  2,18 GB   |    Скачан:  3 раза
Сидов:  1  [  0 KB/s  ]  

 
 
 
Автор Сообщение

Marsianka

[] 

Страна: СССР
Производство: Мосфильм

Жанр: драма
Год выпуска: 1953
Продолжительность: 02:30:08

Перевод: Не требуется
Cубтитры: нет
Оригинальная аудиодорожка: русский

Режиссер: Юлия Солнцева

В ролях:
Сергей Лукьянов, Дина Андреева, Лариса Пашкова, Галина Пашкова, Нина Русинова, Лев Снежницкий, Юрий Любимов, Иван Каширин, Нина Никитина, Михаил Дадыко, Николай Пажитнов, Гарэн Жуковская, Алла Казанская, Вадим Русланов, Виктор Эйхов, Михаил Ульянов, Виктор Кольцов (Кутаков), Елена Понсова, Николай Тимофеев, Борис Шухмин, Вероника Васильева, Анатолий Борисов...
Полный список актёров

Описание:
Фильм-спектакль по одноименной пьесе А.М.Горького в постановке Государственного театра им. Евг. Вахтангова.
Крупный лесопромышленник Егор Булычев неизлечимо болен. В своем доме он окружен ничтожными и жадными людьми, с нетерпением ждущими его смерти. Умный и прозорливый Егор понимает, что прожил всю жизнь с чужими. Он по-своему выражает протест против ханжества и лицемерия "хозяев" - духовенства, либералов, против устоев идущего к краху буржуазного общества. Предсмертное проклятие Булычева своему классу тонет в мощных звуках революционной песни.


Источник: DVD9 R5
Качество видео: DVDRip
Формат видео: AVI

Видео: 688x512 (4:3), 25 fps, XviD ~ 1875 kbps avg, 0.213 bit/pixel
Аудио: 48 kHz, Dolby Digital AC3 2.0, 192 kbps

Раздача от:

Общее
Полное имя : Egor.Bulychov.i.drugie.1953.DVDRip_[New-team]_by_AVP_Studio.avi
Формат : AVI
Формат/Информация : Audio Video Interleave
Профиль формата : OpenDML
Размер файла : 2,18 Гбайт
Продолжительность : 2 ч. 30 м.
Общий поток : 2080 Кбит/сек
Программа кодирования : VirtualDubMod 1.5.10.3 | www.virtualdub-fr.org || (build 2550/release)
Библиотека кодирования : VirtualDubMod build 2550/release

Видео
Идентификатор : 0
Формат : MPEG-4 Visual
Профиль формата : Advanced Simple@L5
Параметр BVOP формата : 1
Параметр QPel формата : Нет
Параметр GMC формата : Без точки перехода
Параметр матрицы формата : Выборочная
Идентификатор кодека : XVID
Идентификатор кодека/Подсказка : XviD
Продолжительность : 2 ч. 30 м.
Битрейт : 1875 Кбит/сек
Ширина : 688 пикселей
Высота : 512 пикселей
Соотношение сторон : 4:3
Частота кадров : 25,000 кадров/сек
Цветовое пространство : YUV
Субдискретизация насыщенности : 4:2:0
Битовая глубина : 8 бит
Тип развёртки : Прогрессивная
Метод сжатия : С потерями
Бит/(Пиксели*Кадры) : 0.213
Размер потока : 1,97 Гбайт (90%)
Библиотека кодирования : XviD 1.2.1 (UTC 2008-12-04)

Аудио
Идентификатор : 1
Формат : AC-3
Формат/Информация : Audio Coding 3
Расширение режима : CM (complete main)
Параметр Endianness формата : Big
Идентификатор кодека : 2000
Продолжительность : 2 ч. 30 м.
Вид битрейта : Постоянный
Битрейт : 192 Кбит/сек
Каналы : 2 канала
Расположение каналов : Front: L R
Частота : 48,0 КГц
Частота кадров : 31,250 кадров/сек (1536 spf)
Метод сжатия : С потерями
Размер потока : 206 Мбайт (9%)
Выравнивание : Разделение по промежуткам
Продолжительность промежутка : 40 мс. (1,00 видеокадр)
Время предзагрузки промежутка : 500 мс




Скачать Егор.Булычов.и.другие.(Юлия.Солнцева).[1953.драма.DVDRip].torrent без регистрации
Золото ЗОЛОТАЯ РАЗДАЧА! СКАЧАННОЕ НЕ ЗАСЧИТЫВАЕТСЯ! Золото
Дата: Зарегистрирован   [ Тип: внутренний ] Как тут cкачать?
MAGNET ссылка
MAGNET ссылка


Скачать .torrent

12 KB

Статус: проверено DHT
Скачан: торрент - 3 раз, раздача полностью - 0 раз
Размер: 2,18 GB
Оценка:  - (Голосов: 0)
Поблагодарили: 0
Поделиться ссылкой на эту раздачу с друзьями:
В контактеFacebookОдноклассникиTwitterLivejournalМой МирLiveinternet
 

 
Показать сообщения:    


Вы не можете начинать темы
Вы не можете отвечать на сообщения
Вы не можете редактировать свои сообщения
Вы не можете удалять свои сообщения
Вы не можете голосовать в опросах
Вы не можете прикреплять файлы к сообщениям
Вы можете скачивать файлы