Loading...
Error

Скачать Звёздный мальчик (Анатолий Дудоров, Евгений Зильберштейн) [1957, детский фильм, сказка, SATRip-AVC] торрент без регистрации

Статистика раздачи
Размер:  1,09 GB   |    Скачан:  6 раз
Сидов:  7  [  0 KB/s  ]  

 
 
 
Автор Сообщение

Marsianka

[] 

Страна: СССР
Производство: Мосфильм по заказу Центральной студии Телевидения

Жанр: детский фильм, сказка
Год выпуска: 1957
Продолжительность: 01:11:54

Перевод: Не требуется
Cубтитры: нет
Оригинальная аудиодорожка: русский

Режиссер: Анатолий Дудоров, Евгений Зильберштейн

В ролях:
Мария Виноградова, Сергей Голованов, Елизавета Кузюрина, Нина Гребешкова, Елена Королёва, Владимир Гуськов, Михаил Трояновский, Афанасий Кочетков, Мария Кремнёва, Б. Виноградов, Надежда Румянцева, Нина Крачковская, Татьяна Гурецкая, Алексей Добронравов, Николай Скоробогатов, Эммануил Геллер...
Об актёрах подробней

Описание:
Телефильм по рассказу Оскара Уайльда. На Землю упала звезда. Так появился на нашей планете звездный мальчик. С каждым годом он становился все красивее и красивее.Его золотые волосы колечками спадали вниз, а губы были похожи на лепестки алой розы. Глаза его напоминали фиалки на берегу чистого ручья,а нежные руки точно нарциссы на нетронутой опушке леса. Но красота не сделала его добрым. Совсем наоборот, мальчик рос гордым и жестоким. Даже свою мать, которая долгие годы искала его и поэтому явилась в отрепьях нищенки, он оттолкнул и обидел. Но судьба дала ему шанс исправить ошибки...

Источник: DVB
Качество видео: SATRip-AVC
Формат видео: MKV

Видео: 696->758x568 (4:3), 25 fps, H264 ~ 1974 kbps avg, 0.200 bit/pixel
Аудио: 48 kHz, MP3 2.0, 128 kbps

Раздача от:

Общее
Полное имя : Zvyozdnyy.malchik.1957.SATRip-AVC_[New-team]_by_AVP_Studio.mkv
Формат : Matroska
Версия формата : Version 2
Размер файла : 1,09 Гбайт
Продолжительность : 1 ч. 11 м.
Общий поток : 2168 Кбит/сек
Дата кодирования : UTC 2017-05-13 19:32:04
Программа кодирования : mkvmerge v6.1.0 ('Old Devil') built on Mar 4 2013 09:10:42
Библиотека кодирования : libebml v1.3.0 + libmatroska v1.4.0

Видео
Идентификатор : 1
Формат : AVC
Формат/Информация : Advanced Video Codec
Профиль формата : High@L4.1
Параметр CABAC формата : Да
Параметр ReFrames формата : 10 кадров
Идентификатор кодека : V_MPEG4/ISO/AVC
Продолжительность : 1 ч. 11 м.
Битрейт : 1974 Кбит/сек
Ширина : 696 пикселей
Высота : 568 пикселей
Соотношение сторон : 4:3
Режим частоты кадров : Постоянный
Частота кадров : 25,000 кадров/сек
Цветовое пространство : YUV
Субдискретизация насыщенности : 4:2:0
Битовая глубина : 8 бит
Тип развёртки : Прогрессивная
Бит/(Пиксели*Кадры) : 0.200
Размер потока : 994 Мбайт (89%)
Библиотека кодирования : x264 core 130 r2273 b3065e6
Настройки программы : cabac=1 / ref=10 / deblock=1:-2:-1 / analyse=0x3:0x113 / me=umh / subme=10 / psy=1 / psy_rd=1.00:0.00 / mixed_ref=1 / me_range=32 / chroma_me=1 / trellis=2 / 8x8dct=1 / cqm=0 / deadzone=21,11 / fast_pskip=1 / chroma_qp_offset=-2 / threads=6 / lookahead_threads=1 / sliced_threads=0 / nr=0 / decimate=0 / interlaced=0 / bluray_compat=0 / constrained_intra=0 / bframes=8 / b_pyramid=2 / b_adapt=2 / b_bias=0 / direct=3 / weightb=1 / open_gop=0 / weightp=2 / keyint=250 / keyint_min=25 / scenecut=40 / intra_refresh=0 / rc=2pass / mbtree=0 / bitrate=1974 / ratetol=1.0 / qcomp=0.60 / qpmin=0 / qpmax=69 / qpstep=4 / cplxblur=20.0 / qblur=0.5 / ip_ratio=1.40 / pb_ratio=1.30 / aq=1:1.00
Default : Да
Forced : Нет

Аудио
Идентификатор : 2
Формат : AC-3
Формат/Информация : Audio Coding 3
Параметр Endianness формата : Big
Идентификатор кодека : A_AC3
Продолжительность : 1 ч. 11 м.
Вид битрейта : Постоянный
Битрейт : 192 Кбит/сек
Каналы : 2 канала
Расположение каналов : Front: L R
Частота : 48,0 КГц
Частота кадров : 31,250 кадров/сек (1536 spf)
Битовая глубина : 16 бит
Метод сжатия : С потерями
Размер потока : 98,7 Мбайт (9%)
Default : Да
Forced : Нет




Скачать Звёздный.мальчик.(Анатолий.Дудоров.Евгений.Зильберштейн).[1957.детский.фильм.сказка.SATRip-AVC].torrent без регистрации
Золото ЗОЛОТАЯ РАЗДАЧА! СКАЧАННОЕ НЕ ЗАСЧИТЫВАЕТСЯ! Золото
Дата: Зарегистрирован   [ Тип: внешний ] Как тут cкачать?
MAGNET ссылка
MAGNET ссылка


Скачать .torrent

12 KB

Статус: проверено DHT
Скачан: торрент - 6 раз, раздача полностью - 1 раз
Размер: 1,09 GB
Оценка:  - (Голосов: 0)
Поблагодарили: 0
Поделиться ссылкой на эту раздачу с друзьями:
В контактеFacebookОдноклассникиTwitterLivejournalМой МирLiveinternet
 

 
Показать сообщения:    


Вы не можете начинать темы
Вы не можете отвечать на сообщения
Вы не можете редактировать свои сообщения
Вы не можете удалять свои сообщения
Вы не можете голосовать в опросах
Вы не можете прикреплять файлы к сообщениям
Вы можете скачивать файлы