Loading...
Error

Скачать Сказка о Звездном мальчике (Леонид Нечаев) [1983, сказка, детский, семейный, SATRip-AVC] торрент без регистрации

Статистика раздачи
Размер:  2,18 GB   |    Скачан:  9 раз
Сидов:  7  [  0 KB/s  ]  

 
 
 
Автор Сообщение

Marsianka

[] 

Сказка о Звездном мальчике (1983) SATRip-AVC

Информация о фильме
Название: Сказка о Звездном мальчике
Год выпуска: 1983
Жанр: сказка, детский, семейный
Режиссер: Леонид Нечаев
В ролях: Павел Чернышев, Лариса Понаморенко, Ваня Пчёлкин, Игорь Сысоев, Ангелина Поленчукова, Дима Волков, Иван Мацкевич, Гражина Байкштите и др

Описание:

По мотивам сказок Оскара Уайльда.

Об истинных человеческих ценностях: духовной красоте человека, доброте его сердца, способности любить бескорыстно...
В одной не очень отдаленной галактике, достигшей невероятного прогресса в общественной жизни, возникла проблема - на Земле находится мощнейший источник возмущения. Наши люди всё ещё не научились жить спокойно и размеренно - они испытывают огромное количество различных чувств, эмоций, которые не дают спокойно жить нашим космическим соседям, и тогда на галактическом совете было решено отправить на Землю диверсанта – ребёнка....



Страна: СССР
Студия: Беларусьфильм
Продолжительность: 01:05:29+01:03:07
Перевод: Не требуется

Доп. информация:

Видео-поток получен через IPTV (канал "Теленяня") и без конвертации перепакован в MKV-контейнер (с помощью TS-Doctor).
Аудио-поток конвертирован из mp2 в mp3 (Sound Forge 10).

Семпл

Файл
Качество видео: SATRip-AVC
Формат видео: MKV
Видео: 720x576@785x576, (1.36:1), 25 fps, AVC (Main@L3.0), ~ 2200 kbps
Аудио: MP3, 224 kbps, 48.0 Khz, 2 channels

General
Complete name : E:UPLOADEDIPTVPROPERСказка.о.Звездном.Мальчике.1983.IPTV.H264-ilyaсказка.о.звездном.мальчике.1.серия.1983.iptv.h264-ilya.mkv
Format : Matroska
File size : 1.10 GiB
Duration : 1h 4mn
Overall bit rate : 2 426 Kbps
Encoded date : UTC 2010-05-01 15:38:22
Writing application : mkvmerge v2.2.0 ('Turn It On Again') built on Mar 4 2008 12:58:26
Writing library : libebml v0.7.7 + libmatroska v0.8.1

Video
ID : 1
Format : AVC
Format/Info : Advanced Video Codec
Format profile : Main@L3.0
Format settings, CABAC : Yes
Format settings, ReFrames : 4 frames
Muxing mode : Container profile=Unknown@3.0
Codec ID : V_MPEG4/ISO/AVC
Duration : 1h 4mn
Bit rate : 2 154 Kbps
Width : 720 pixels
Height : 576 pixels
Display aspect ratio : 4:3
Original display aspect ratio : 4:3
Frame rate : 25.000 fps
Standard : Component
Resolution : 24 bits
Colorimetry : 4:2:0
Scan type : Progressive
Bits/(Pixel*Frame) : 0.208
Stream size : 1 000 MiB (89%)
Language : English

Audio
ID : 2
Format : MPEG Audio
Format version : Version 1
Format profile : Layer 3
Codec ID : A_MPEG/L3
Codec ID/Hint : MP3
Duration : 1h 4mn
Bit rate mode : Constant
Bit rate : 224 Kbps
Channel(s) : 2 channels
Sampling rate : 48.0 KHz
Resolution : 16 bits
Stream size : 104 MiB (9%)




Скачать Сказка.о.Звездном.мальчике.(Леонид.Нечаев).[1983.сказка.детский.семейный.SATRip-AVC].torrent без регистрации
Золото ЗОЛОТАЯ РАЗДАЧА! СКАЧАННОЕ НЕ ЗАСЧИТЫВАЕТСЯ! Золото
Дата: Зарегистрирован   [ Тип: внешний ] Как тут cкачать?
MAGNET ссылка
MAGNET ссылка


Скачать .torrent

12 KB

Статус: проверено DHT
Скачан: торрент - 9 раз, раздача полностью - 3 раз
Размер: 2,18 GB
Оценка:  - (Голосов: 0)
Поблагодарили: 0
Поделиться ссылкой на эту раздачу с друзьями:
В контактеFacebookОдноклассникиTwitterLivejournalМой МирLiveinternet
 

 
Показать сообщения:    


Вы не можете начинать темы
Вы не можете отвечать на сообщения
Вы не можете редактировать свои сообщения
Вы не можете удалять свои сообщения
Вы не можете голосовать в опросах
Вы не можете прикреплять файлы к сообщениям
Вы можете скачивать файлы