Loading...
Error

Скачать (Blues) B.B. King & Eric Clapton - Riding With The King [2015, FLAC, Lossless] торрент без регистрации

Статистика раздачи
Размер:  472 MB   |    Скачан:  5 раз
Сидов:  18  [  0 KB/s  ]  

 
 
 
Автор Сообщение

Marsianka

[] 

Название: Riding With The King
Исполнитель: B.B. King & Eric Clapton
Год: 2015
Жанр: Blues

Продолжительность: 01:01:56
Формат/Кодек: FLAC
Битрейт аудио: Lossless

01. Riding With The King (4:27)
02. Ten Long Years (4:43)
03. Key To The Highway (3:43)
04. Marry You (5:04)
05. Three O'Clock Blues (8:40)
06. Help The Poor (5:08)
07. I Wanna Be (4:50)
08. Worried Life Blues (4:30)
09. Days Of Old (3:03)
10. When My Heart Beats Like A Hammer (7:12)
11. Hold On I'm Coming (6:25)
12. Come Rain Or Come Shine (4:12)
Дополнительная информация:
Exact Audio Copy V1.0 beta 2 from 29. April 2011

EAC extraction logfile from 26. July 2015, 20:57

B.B. King & Eric Clapton / Riding With The King [2015 Audio Fidelity SACD AFZ 211]

Used drive : HL-DT-STBD-RE BH14NS40 Adapter: 0 ID: 2

Read mode : Secure
Utilize accurate stream : Yes
Defeat audio cache : Yes
Make use of C2 pointers : No

Read offset correction : 6
Overread into Lead-In and Lead-Out : No
Fill up missing offset samples with silence : Yes
Delete leading and trailing silent blocks : No
Null samples used in CRC calculations : Yes
Used interface : Native Win32 interface for Win NT & 2000

Used output format : User Defined Encoder
Selected bitrate : 1024 kBit/s
Quality : High
Add ID3 tag : No
Command line compressor : C:Program Files (x86)Exact Audio CopyFlacflac.exe
Additional command line options : -V -5 -T "artist=%albumartist%" -T "title=%title%" -T "album=%albumtitle%" -T "date=%year%" -T "genre=%genre%" -T "tracknumber=%tracknr%" %source%

TOC of the extracted CD

Track | Start | Length | Start sector | End sector
---------------------------------------------------------
1 | 0:00.00 | 4:26.41 | 0 | 19990
2 | 4:26.41 | 4:43.16 | 19991 | 41231
3 | 9:09.57 | 3:42.46 | 41232 | 57927
4 | 12:52.28 | 5:03.62 | 57928 | 80714
5 | 17:56.15 | 8:40.21 | 80715 | 119735
6 | 26:36.36 | 5:08.03 | 119736 | 142838
7 | 31:44.39 | 4:49.73 | 142839 | 164586
8 | 36:34.37 | 4:29.56 | 164587 | 184817
9 | 41:04.18 | 3:02.73 | 184818 | 198540
10 | 44:07.16 | 7:11.64 | 198541 | 230929
11 | 51:19.05 | 6:25.30 | 230930 | 259834
12 | 57:44.35 | 4:11.55 | 259835 | 278714

Range status and errors

Selected range

Filename C:EACB.B. King & Eric Clapton - (2000) Riding With The King [2015 Audio Fidelity SACD AFZ 211]B.B. King & Eric Clapton - Riding With The King [2015 Audio Fidelity SACD AFZ 211].wav

Peak level 97.0 %
Extraction speed 4.7 X
Range quality 100.0 %
Test CRC 79CA564D
Copy CRC 79CA564D
Copy OK

No errors occurred

AccurateRip summary

Track 1 not present in database
Track 2 not present in database
Track 3 not present in database
Track 4 not present in database
Track 5 not present in database
Track 6 not present in database
Track 7 not present in database
Track 8 not present in database
Track 9 not present in database
Track 10 not present in database
Track 11 not present in database
Track 12 not present in database

None of the tracks are present in the AccurateRip database

End of status report

==== Log checksum B0B7D3547966C4AEA25DA7DF2FB9B38D2AA41692E88CDA6567EA866281251192 ====
REM GENRE Blues
REM DATE 2000
REM DISCID BE0E840C
REM COMMENT "ExactAudioCopy v1.0b2"
PERFORMER "B.B. King & Eric Clapton"
TITLE "Riding With The King [2015 Audio Fidelity SACD AFZ 211]"
FILE "B.B. King & Eric Clapton - Riding With The King [2015 Audio Fidelity SACD AFZ 211].flac" WAVE
TRACK 01 AUDIO
TITLE "Riding With The King"
PERFORMER "B.B. King & Eric Clapton"
INDEX 01 00:00:00
TRACK 02 AUDIO
TITLE "Ten Long Years"
PERFORMER "B.B. King & Eric Clapton"
INDEX 01 04:26:41
TRACK 03 AUDIO
TITLE "Key To The Highway"
PERFORMER "B.B. King & Eric Clapton"
INDEX 01 09:09:57
TRACK 04 AUDIO
TITLE "Marry You"
PERFORMER "B.B. King & Eric Clapton"
INDEX 01 12:52:28
TRACK 05 AUDIO
TITLE "Three O'Clock Blues"
PERFORMER "B.B. King & Eric Clapton"
INDEX 01 17:56:15
TRACK 06 AUDIO
TITLE "Help The Poor"
PERFORMER "B.B. King & Eric Clapton"
INDEX 01 26:36:36
TRACK 07 AUDIO
TITLE "I Wanna Be"
PERFORMER "B.B. King & Eric Clapton"
INDEX 01 31:44:39
TRACK 08 AUDIO
TITLE "Worried Life Blues"
PERFORMER "B.B. King & Eric Clapton"
INDEX 01 36:34:37
TRACK 09 AUDIO
TITLE "Days Of Old"
PERFORMER "B.B. King & Eric Clapton"
INDEX 01 41:04:18
TRACK 10 AUDIO
TITLE "When My Heart Beats Like A Hammer"
PERFORMER "B.B. King & Eric Clapton"
INDEX 01 44:07:16
TRACK 11 AUDIO
TITLE "Hold On I'm Coming"
PERFORMER "B.B. King & Eric Clapton"
INDEX 01 51:19:05
TRACK 12 AUDIO
TITLE "Come Rain Or Come Shine"
PERFORMER "B.B. King & Eric Clapton"
INDEX 01 57:44:35
Издатель (лейбл): Audio Fidelity
Номер по каталогу: AFZ 211
Rip by flac jacket




Скачать B.B.King.&.Eric.Clapton.-.Riding.With.The.King.[2015.FLAC.Lossless].torrent без регистрации
Золото ЗОЛОТАЯ РАЗДАЧА! СКАЧАННОЕ НЕ ЗАСЧИТЫВАЕТСЯ! Золото
Дата: Зарегистрирован   [ Тип: внешний ] Как тут cкачать?
MAGNET ссылка
MAGNET ссылка


Скачать .torrent

11 KB

Статус: проверено DHT
Скачан: торрент - 5 раз, раздача полностью - 1 раз
Размер: 472 MB
Оценка:  - (Голосов: 0)
Поблагодарили: 0
Поделиться ссылкой на эту раздачу с друзьями:
В контактеFacebookОдноклассникиTwitterLivejournalМой МирLiveinternet
 

 
Показать сообщения:    


Вы не можете начинать темы
Вы не можете отвечать на сообщения
Вы не можете редактировать свои сообщения
Вы не можете удалять свои сообщения
Вы не можете голосовать в опросах
Вы не можете прикреплять файлы к сообщениям
Вы можете скачивать файлы