Loading...
Error

Скачать Семейные ценности / Американская семейка / Modern Family (сезон 3) (Майкл Спиллер) [2011, комедия, WEB-DL] [720p] [DVO (Кубик в Кубе)] торрент без регистрации

 
Статистика раздачи
Размер:  4,86 GB   |    Скачан:  7541 раз
Сидов:  1  [  0 KB/s  ]  
 
Автор Сообщение

МихаНЕзатор

[] 

Семейные ценности / Американская семейка / Modern Family


Год выпуска: 2011
Страна: США
Жанр: Комедия
Продолжительность: ~ 21 минута каждый эпизод
Перевод: Профессиональный двухголосый закадровый "Кубик в Кубе"
Русские субтитры: нет
Режиссёр: Майкл Спиллер

В ролях: Эд О’Нил, Джули Боуэн, Ти Баррелл, София Вергара, Джесси Тайлер Фергюсон, Эрик Стоунстрит, Сара Хайланд, Нолан Гоулд, Эриель Винтер, Рико Родригез и др.

Описание: Вся история вращается вокруг трех семей, которые оказываются взаимосвязанными через Джея, его сына и его дочь Клэр. Семьям предстоит столкнуться друг с другом для решения своих семейных проблем.

Доп. информация: Большинство серий начинается с члена семей, у которого есть вопросы, ответы на которые он будет находить в течение всего эпизода. Затем следует показ семей в «разрезе» — их выходки, приключения, проблемы и неудачи с которыми они сталкиваются ежедневно. Серии порой сфокусированы на роли отца в семье, так и на детях и т. д. Обычно серия заканчивается голосом за кадром, одного из членов семьи который высказывает свое мнение. Другие серии могут раскрывать мир каждой семьи в отдельности, не связывая все семьи.



Качество: WEB-DL 720p
Формат: MKV
Видео кодек: H.264
Аудио кодек: MP3
Видео: 1280 х 720, 23.976 fps, 4 066 Kbps, 0,184 bit/pixel
Аудио: 48 kHz, 2 ch, ~128 kbps
Общее
Уникальный идентификатор : 212778863626161754433126904742654991191 (0xA013B7EF8D719E94AA2E968C0EA75B57)
Полное имя : F:\Раздачи\ModFam\Modern.Family.S03E01.WEB-DL.720p.K3.rus.mkv
Формат : Matroska
Размер файла : 678 Мбайт
Продолжительность : 21 м.
Общий поток : 4387 Кбит/сек
Дата кодирования : UTC 2011-11-08 14:42:37
Программа кодирования : mkvmerge v3.2.0 ('Beginnings') built on Feb 12 2010 16:46:17
Библиотека кодирования : libebml v0.7.9 + libmatroska v0.8.1
Видео
Идентификатор : 1
Формат : AVC
Формат/Информация : Advanced Video Codec
Профиль формата : High@L3.1
Параметр CABAC формата : Нет
Параметр ReFrames формата : 2 кадры
Параметры GOP формата : M=2, N=24
Идентификатор кодека : V_MPEG4/ISO/AVC
Продолжительность : 21 м.
Битрейт : 4172 Кбит/сек
Ширина : 1280 пикс.
Высота : 720 пикс.
Соотношение сторон : 16:9
Частота кадров : 23,976 кадр/сек
Цветовое пространство : YUV
Подвыборка цветности : 4:2:0
Битовая глубина : 8 бит
Тип развёртки : Прогрессивная
Бит/(Пиксели*Кадры) : 0.189
Размер потока : 645 Мбайт (95%)
Язык : English
Основные цвета : BT.709-5, BT.1361, IEC 61966-2-4, SMPTE RP177
Характеристики трансфера : BT.709-5, BT.1361
Коэффициенты матрицы : BT.709-5, BT.1361, IEC 61966-2-4 709, SMPTE RP177
Аудио
Идентификатор : 2
Формат : MPEG Audio
Версия формата : Version 1
Профиль формата : Layer 3
Режим : Joint stereo
Расширение режима : MS Stereo
Идентификатор кодека : A_MPEG/L3
Идентификатор кодека/Подсказка : MP3
Продолжительность : 21 м.
Вид битрейта : Постоянный
Битрейт : 128 Кбит/сек
Канал(ы) : 2 канала(ов)
Частота : 48,0 КГц
Метод сжатия : С потерями
Задержка видео : 300 мс.
Размер потока : 19,8 Мбайт (3%)



Скачать Семейные.ценности.Американская.семейка.Modern.Family.(сезон.3).(Майкл.Спиллер).[2011.комедия.WEB-DL].[720p].[DVO.(Кубик.в.Кубе)].torrent без регистрации
Золото ЗОЛОТАЯ РАЗДАЧА! СКАЧАННОЕ НЕ ЗАСЧИТЫВАЕТСЯ! Золото
Дата: Зарегистрирован   [ Тип: внутренний ] Как тут cкачать?
MAGNET ссылка
MAGNET ссылка


Скачать .torrent

27 KB

Статус: проверено DHT
Скачан: торрент - 7541 раз, раздача полностью - 31 раз
Размер: 4,86 GB
Оценка:  5 (Голосов: 1)
Поблагодарили: 2
Поделиться ссылкой на эту раздачу с друзьями:
В контактеFacebookОдноклассникиTwitterLivejournalМой МирLiveinternet
 

 

МихаНЕзатор

[] 

Раздача обновлена.
 
Показать сообщения:    


Вы не можете начинать темы
Вы не можете отвечать на сообщения
Вы не можете редактировать свои сообщения
Вы не можете удалять свои сообщения
Вы не можете голосовать в опросах
Вы не можете прикреплять файлы к сообщениям
Вы можете скачивать файлы